Warning! Use a VPN When Downloading Torrents!
Your IP Address is . Location
Your Internet Provider can see when you download torrents! Hide your IP Address with a VPN
ProStyleX warns: You must use ProStyleX VPN to hide your torrenting. It's FREE HIDE ME NOW
Xvid/x264



First Cams

Non-English

Music

Site Friends
      ETTV

      Torrentz2

      GloDLS

      IGGGAMES

      Free Courses Online

      OneHack




Lone.Survivor.2013.iTA.ENG.AC3.SUB.iTA.ENG.BluRay.1080p.x264.jeddak-MIRCrew


Download torrent:      
Info Hash:  DB383E6F0D98A1CCAAAFEBD33192ED48FA64928E
Category:  Movies > HD
Torrent language:  English  
Seeds | Leech:  51 | 5 Update seeds and leechers stat
Complete:   2,723
Health:   
Total Size:  2.88 GB
Added By:        jeddak ManTurtleSun
Date Added:  19-09-2021 04:33:pm | Last Edit:  14-10-2021 02:45:am

Un système d'onglets en javascript
Description Trackers Files 1 Comments 0 Download





Lone Survivor


Titolo originale: Lone Survivor
Genere: Azione, Drammatico, Thriller, Guerra
Anno: 2013
Regia: Peter Berg
Attori: Mark Wahlberg, Taylor Kitsch, Emile Hirsch, Eric Bana, Ben Foster, Alexander Ludwig, Scott Elrod, Rohan Chand, Ali Suliman
Paese: USA
Durata: 121 min
Distribuzione: Universal Pictures
Sceneggiatura: Peter Berg
Fotografia: Tobias A. Schliessler
Montaggio: Colby Parker Jr.
Musiche: Steve Jablonsky
Produzione: Envision Entertainment Corporation, Film 44, Herrick Entertainment


Lone Survivor, scritto e diretto da Peter Berg, è basato su fatti realmente accaduti descritti nell'omonimo romanzo best seller. Il film racconta l'incredibile storia di quattro Navy SEAL in missione segreta per neutralizzare un nucleo operativo ad alto rischio di al-Qaeda, finiti in un'imboscata nemica sulle montagne Afghane. Di fronte ad una decisione morale impossibile, il piccolo gruppo rimane isolato dai soccorsi, e circondato da una milizia talebana numericamente più grande e pronta alla guerra. Affrontando insieme le più impensabili conseguenze sul loro destino, i quattro uomini trovano la forza e la resistenza necessaria per combattere fino alla fine.
Mark Wahlberg interpreta Marcus Luttrell, l'autore delle memorie raccontate in prima persona in Lone Survivor, il libro da cui è tratto il film. Nel cast del film, nelle vesti degli altri membri della squadra di SEAL, disposti a tutto per salvare i propri commilitoni, troviamo Taylor Kitsch, nei panni di Michael Murphy, Emile Hirsch in quelli di Danny Dietz, e Ben Foster che interpreta Matthew "Axe" Axelson. Della squadra fa parte anche Eric Bana nel ruolo di Erik Kristensen, il loro comandante in Afghanistan.. Pur concedendosi qualche libertà narrativa, Lone Survivor conserva lo spirito del libro e ripercorre in maniera realistica gli eventi che i quattro militari sono stati chiamati ad affrontare durante la loro missione.




















General
Unique ID                   : 227457501369375455843324690927188493493 (0xAB1EB8A6DF751EE89875384EF488C4B5)
Complete name               : Lone.Survivor.2013.iTA.ENG.AC3.SUB.iTA.ENG.BluRay.1080p.x264.jeddak-MIRCrew.mkv
Format                      : Matroska
Format version              : Version 2
File size                   : 2.88 GiB
Duration                    : 2 h 1 min
Overall bit rate            : 3 398 kb/s
Movie name                  : Lone.Survivor.2013.iTA.ENG.AC3.SUB.iTA.ENG.BluRay.1080p.x264.jeddak-MIRCrew
Encoded date                : UTC 2021-09-13 22:06:29
Writing application         : mkvmerge v5.6.0 ('Kenya Kane') built on May 27 2012 16:44:04
Writing library             : libebml v1.2.3 + libmatroska v1.3.0 / Lavf58.29.100

Video
ID                          : 1
Format                      : AVC
Format/Info                 : Advanced Video Codec
Format profile              : [email protected]
Format settings             : CABAC / 4 Ref Frames
Format settings, CABAC      : Yes
Format settings, Reference  : 4 frames
Codec ID                    : V_MPEG4/ISO/AVC
Duration                    : 2 h 1 min
Bit rate                    : 2 500 kb/s
Width                       : 1 920 pixels
Height                      : 800 pixels
Display aspect ratio        : 2.40:1
Frame rate mode             : Constant
Frame rate                  : 23.976 (24000/1001) FPS
Color space                 : YUV
Chroma subsampling          : 4:2:0
Bit depth                   : 8 bits
Scan type                   : Progressive
Bits/(Pixel*Frame)          : 0.068
Stream size                 : 2.06 GiB (72%)
Title                       : ...::: jeddak MIRCrew :::...
Writing library             : x264 core 148
Encoding settings           : cabac=1 / ref=3 / deblock=1:-1:-1 / analyse=0x3:0x113 / me=hex / subme=7 / psy=1 / psy_rd=1.00:0.15 / mixed_ref=1 / me_range=16 / chroma_me=1 / trellis=1 / 8x8dct=1 / cqm=0 / deadzone=21,11 / fast_pskip=1 / chroma_qp_offset=-3 / threads=6 / lookahead_threads=1 / sliced_threads=0 / nr=0 / decimate=1 / interlaced=0 / bluray_compat=0 / constrained_intra=0 / bframes=3 / b_pyramid=2 / b_adapt=1 / b_bias=0 / direct=1 / weightb=1 / open_gop=0 / weightp=2 / keyint=240 / keyint_min=24 / scenecut=40 / intra_refresh=0 / rc_lookahead=40 / rc=abr / mbtree=1 / bitrate=2500 / ratetol=1.0 / qcomp=0.60 / qpmin=0 / qpmax=69 / qpstep=4 / vbv_maxrate=62500 / vbv_bufsize=78125 / nal_hrd=none / filler=0 / ip_ratio=1.40 / aq=1:1.00
Default                     : Yes
Forced                      : No
Color range                 : Limited
Color primaries             : BT.709
Transfer characteristics    : BT.709
Matrix coefficients         : BT.709

Audio #1
ID                          : 2
Format                      : AC-3
Format/Info                 : Audio Coding 3
Commercial name             : Dolby Digital
Codec ID                    : A_AC3
Duration                    : 2 h 1 min
Bit rate mode               : Constant
Bit rate                    : 448 kb/s
Channel(s)                  : 6 channels
Channel layout              : L R C LFE Ls Rs
Sampling rate               : 48.0 kHz
Frame rate                  : 31.250 FPS (1536 SPF)
Compression mode            : Lossy
Delay relative to video     : -5 ms
Stream size                 : 388 MiB (13%)
Title                       : iTA AC3 5.1
Language                    : Italian
Service kind                : Complete Main
Default                     : Yes
Forced                      : No

Audio #2
ID                          : 3
Format                      : AC-3
Format/Info                 : Audio Coding 3
Commercial name             : Dolby Digital
Codec ID                    : A_AC3
Duration                    : 2 h 1 min
Bit rate mode               : Constant
Bit rate                    : 448 kb/s
Channel(s)                  : 6 channels
Channel layout              : L R C LFE Ls Rs
Sampling rate               : 48.0 kHz
Frame rate                  : 31.250 FPS (1536 SPF)
Compression mode            : Lossy
Delay relative to video     : -5 ms
Stream size                 : 388 MiB (13%)
Title                       : ENG AC3 5.1
Language                    : English
Service kind                : Complete Main
Default                     : No
Forced                      : No

Text #1
ID                          : 4
Format                      : PGS
Codec ID                    : S_HDMV/PGS
Codec ID/Info               : Picture based subtitle format used on BDs/HD-DVDs
Duration                    : 2 h 1 min
Title                       : iTA FORCED - PGS
Language                    : Italian
Default                     : Yes
Forced                      : Yes

Text #2
ID                          : 5
Format                      : UTF-8
Codec ID                    : S_TEXT/UTF8
Codec ID/Info               : UTF-8 Plain Text
Title                       : iTA FORCED - SRT
Language                    : Italian
Default                     : No
Forced                      : Yes

Text #3
ID                          : 6
Format                      : PGS
Codec ID                    : S_HDMV/PGS
Codec ID/Info               : Picture based subtitle format used on BDs/HD-DVDs
Duration                    : 1 h 38 min
Title                       : ENG FORCED - PGS
Language                    : English
Default                     : No
Forced                      : Yes

Text #4
ID                          : 7
Format                      : UTF-8
Codec ID                    : S_TEXT/UTF8
Codec ID/Info               : UTF-8 Plain Text
Title                       : ENG FORCED - SRT
Language                    : English
Default                     : No
Forced                      : Yes

Text #5
ID                          : 8
Format                      : PGS
Codec ID                    : S_HDMV/PGS
Codec ID/Info               : Picture based subtitle format used on BDs/HD-DVDs
Duration                    : 2 h 1 min
Title                       : iTA REGULAR - PGS
Language                    : Italian
Default                     : No
Forced                      : No

Text #6
ID                          : 9
Format                      : UTF-8
Codec ID                    : S_TEXT/UTF8
Codec ID/Info               : UTF-8 Plain Text
Title                       : iTA REGULAR - SRT
Language                    : Italian
Default                     : No
Forced                      : No

Text #7
ID                          : 10
Format                      : PGS
Codec ID                    : S_HDMV/PGS
Codec ID/Info               : Picture based subtitle format used on BDs/HD-DVDs
Duration                    : 1 h 51 min
Title                       : ENG NON UDENTI - PGS
Language                    : English
Default                     : No
Forced                      : No

Text #8
ID                          : 11
Format                      : UTF-8
Codec ID                    : S_TEXT/UTF8
Codec ID/Info               : UTF-8 Plain Text
Title                       : ENG NON UDENTI - SRT
Language                    : English
Default                     : No
Forced                      : No

Menu
00:00:00.000                : :Capitolo 01
00:03:43.181                : :Capitolo 02
00:12:39.550                : :Capitolo 03
00:20:02.493                : :Capitolo 04
00:26:39.765                : :Capitolo 05
00:33:08.236                : :Capitolo 06
00:39:37.208                : :Capitolo 07
00:45:02.825                : :Capitolo 08
00:50:11.175                : :Capitolo 09
00:54:28.182                : :Capitolo 10
01:01:20.302                : :Capitolo 11
01:08:44.537                : :Capitolo 12
01:15:54.967                : :Capitolo 13
01:20:48.635                : :Capitolo 14
01:26:12.459                : :Capitolo 15
01:31:18.598                : :Capitolo 16
01:38:46.921                : :Capitolo 17
01:42:21.218                : :Capitolo 18
01:52:00.005                : :Capitolo 19
01:56:46.124                : :Capitolo 20





Trackers:
udp://tracker.torrent.eu.org:451/announce

Lone.Survivor.2013.iTA.ENG.AC3.SUB.iTA.ENG.BluRay.1080p.x264.jeddak-MIRCrew
Files
Lone.Survivor.2013.iTA.ENG.AC3.SUB.iTA.ENG.BluRay.1080p.x264.jeddak-MIRCrew.mkv (2.88 GB)


Comments:
No comments still posted

Powered by TT | Page Generated In 1.863929 secs.
| RSS Feed | Feed Info