Warning! Use a VPN When Downloading Torrents!
Your IP Address is . Location
Your Internet Provider can see when you download torrents! Hide your IP Address with a VPN
ProStyleX warns: You must use ProStyleX VPN to hide your torrenting. It's FREE HIDE ME NOW
Xvid/x264



First Cams

Non-English

Music

Site Friends
      ETTV

      Torrentz2

      GloDLS

      IGGGAMES

      Free Courses Online

      OneHack




My Fellow Americans - Fuga dalla Casa Bianca (1996) 720p h264 Ac3 Ita Eng Sub Eng-MIRCrew


Download torrent:      
Info Hash:  E1CD91506975FB5E56DAB16CC3485644166E2ADE
Category:  Movies > HD
Torrent language:  English  
Seeds | Leech:  22 | 0 Update seeds and leechers stat
Complete:   798
Health:   
Total Size:  1.60 GB
Added By:        MIRCrewRS Site FriendSuperman
Date Added:  19-09-2021 04:06:pm | Last Edit:  13-10-2021 11:09:pm

Un système d'onglets en javascript
Description Trackers Files 2 Comments 0 Download
My Fellow Americans - Fuga dalla Casa Bianca (1996) 720p h264 Ac3 Ita Eng Sub Eng-MIRCrew


NO FOUND ONLY ORIGINAL RELEASE


My release is always in double track audio italian and Original audio
for select it use VLC or dvd player home
not use wmp

Fuga dalla Casa Bianca - My Fellow Americans (1996)

Quality MIRCrew on HD 720p da 1,6 gb







 

Titolo originale My Fellow Americans
Lingua originale inglese
Paese di produzione Stati Uniti d'America
Anno 1996
Durata 97 min
Genere commedia, avventura
Regia Peter Segal
Soggetto E. Jack Kaplan, Richard Chapman
Sceneggiatura E. Jack Kaplan, Richard Chapman, Peter Tolan
Produttore Jon Peters
Casa di produzione Peters Entertainment, Storyline Entertainment
Fotografia Julio Macat
Montaggio William Kerr
Musiche William Ross



   Jack Lemmon: Russell Kramer
   James Garner: Matt Douglas
   Dan Aykroyd: William Haney
   John Heard: Ted Matthews
   Wilford Brimley: Joe Hollis
   Lauren Bacall: Margaret Kramer
   Sela Ward: Kaye Griffin
   Everett McGill: Paul Tanner
   Bradley Whitford: Carl Witnaur
   James Rebhorn: Charlie Reynolds
   Esther Rolle: Rita
   Jeff Yagher: Ralph Fleming / Dorothy
   Edwin Newman: se stesso
   Jack Garner:
   Conchata Ferrell:
   Tom Everett: Agente Wilkerson
   Michael Peña: Ernesto
   Marg Helgenberger: Joanna



Locandina Fuga dalla Casa Bianca

Due ex presidenti degli Stati Uniti, un tempo acerrimi nemici sono entrambi travolti da uno scandalo. I due abbandonano le rivalità e si alleano per trovare i veri responsabili dello scandalo e provare la loro innocenza.



Kramer and Douglas, two former presidents from opposite ends of the political spectrum, become reluctant allies when they become the target of a conspirator in President Haney's administration.

 














General

Complete name                            : Fuga dalla Casa Bianca - My Fellow Americans (1996).720p.h264.ita.eng.sub.eng-MIRCrew\Fuga dalla Casa Bianca - My Fellow Americans (1996).720p.h264.ita.eng.sub.eng-MIRCrew.mkv
Format                                   : Matroska
Format version                           : Version 2
File size                                : 1.60 GiB
Duration                                 : 1h 41mn
Overall bit rate                         : 2 264 Kbps
Movie name                               : MIRCrew
Encoded date                             : UTC 2019-11-12 21:57:56
Writing application                      : mkvmerge v5.8.0 ('No Sleep / Pillow') built on Sep  2 2012 15:37:04
Writing library                          : Lavf54.63.100
COMMENT                                  : NIRCrew

Video
ID                                       : 1
Format                                   : AVC
Format/Info                              : Advanced Video Codec
Format profile                           : [email protected]
Format settings, CABAC                   : Yes
Format settings, ReFrames                : 2 frames
Codec ID                                 : V_MPEG4/ISO/AVC
Duration                                 : 1h 41mn
Bit rate                                 : 1 900 Kbps
Width                                    : 1 280 pixels
Height                                   : 720 pixels
Display aspect ratio                     : 16:9
Frame rate mode                          : Variable
Frame rate                               : 23.976 fps
Color space                              : YUV
Chroma subsampling                       : 4:2:0
Bit depth                                : 8 bits
Scan type                                : Progressive
Bits/(Pixel*Frame)                       : 0.086
Stream size                              : 1.30 GiB (81%)
Title                                    : MIRcrew
Writing library                          : x264 core 130 r2273
Encoding settings                        : cabac=1 / ref=2 / deblock=1:0:0
Language                                 : Italian
Default                                  : Yes
Forced                                   : No
DURATION                                 : 01:41:23.953000000

Audio #1
ID                                       : 2
Format                                   : AC-3
Format/Info                              : Audio Coding 3
Mode extension                           : CM (complete main)
Codec ID                                 : A_AC3
Duration                                 : 1h 41mn
Bit rate mode                            : Constant
Bit rate                                 : 192 Kbps
Channel(s)                               : 2 channels
Channel positions                        : Front: L R
Sampling rate                            : 48.0 KHz
Bit depth                                : 16 bits
Compression mode                         : Lossy
Delay relative to video                  : -5ms
Stream size                              : 139 MiB (8%)
Title                                    : Ita Ac3 2.0
Language                                 : Italian
Default                                  : Yes
Forced                                   : No
DURATION                                 : 01:41:23.904000000


Audio #2
ID                                       : 3
Format                                   : AC-3
Format/Info                              : Audio Coding 3
Mode extension                           : CM (complete main)
Codec ID                                 : A_AC3
Duration                                 : 1h 41mn
Bit rate mode                            : Constant
Bit rate                                 : 192 Kbps
Channel(s)                               : 2 channels
Channel positions                        : Front: L R
Sampling rate                            : 48.0 KHz
Bit depth                                : 16 bits
Compression mode                         : Lossy
Delay relative to video                  : -5ms
Stream size                              : 139 MiB (8%)
Title                                    : Eng Ac3 2.0
Language                                 : English
Default                                  : No
Forced                                   : No
DURATION                                 : 01:41:23.861000000












Trackers:
udp://tracker.torrent.eu.org:451/announce

My Fellow Americans - Fuga dalla Casa Bianca (1996) 720p h264 Ac3 Ita Eng Sub Eng-MIRCrew
Files
Fuga dalla Casa Bianca - My Fellow Americans (1996).720p.h264.ita.eng.sub.eng-MIRCrew.eng.srt (136.67 kB)
Fuga dalla Casa Bianca - My Fellow Americans (1996).720p.h264.ita.eng.sub.eng-MIRCrew.mkv (1.60 GB)


Comments:
No comments still posted

Powered by TT | Page Generated In 9.612581 secs.
| RSS Feed | Feed Info