Warning! Use a VPN When Downloading Torrents!
Your IP Address is . Location
Your Internet Provider can see when you download torrents! Hide your IP Address with a VPN
ProStyleX warns: You must use ProStyleX VPN to hide your torrenting. It's FREE HIDE ME NOW
Xvid/x264



First Cams

Non-English

Music

Site Friends
      ETTV

      Torrentz2

      GloDLS

      IGGGAMES

      Free Courses Online

      OneHack




Haathi Mere Saathi (2021) 720p Hindi TRUE WEB-HDRip x264 AAC DD 2.0 By Full4Movies.


Download torrent:      
Info Hash:  467409A9E8476E3D217D8D5830D74D29D31BAD02
Category:  Movies > HD
Torrent language:  Hindi  
Seeds | Leech:  26 | 0 Update seeds and leechers stat
Complete:   729
Health:   
Total Size:  1.30 GB
Added By:        full4movies
Date Added:  19-09-2021 02:29:am | Last Edit:  17-10-2021 04:07:pm

IMDB
Haathi Mere Saathi
Haathi Mere Saathi
Genre Drama

Director Prabu Solomon

Writer Prabu Solomon

Actors Rana Daggubati, Zoya Hussain, Krishnakumar Menon

Plot Haathi Mere Saathi is a true-blue animal film signifying a deep and strong bond between humans and animals.

Link http://www.imdb.com/title/tt14852412


Un système d'onglets en javascript
Description Trackers Files 1 Comments 0 Download


Visit Us = https://www.full4movies.live/



General
Complete name                  : Haathi Mere Saathi (2021) 720p Hindi TRUE WEB-HDRip x264 AAC DD 2.0 By Full4Movies.mkv
Format                         : Matroska
Format version                 : Version 4 / Version 2
File size                      : 1.30 GiB
Duration                       : 2 h 41 min
Overall bit rate               : 1 149 kb/s
Encoded date                   : UTC 2021-09-19 02:13:45
Writing application            : mkvmerge v8.3.0 ('Over the Horizon') 64bit
Writing library                : libebml v1.3.1 + libmatroska v1.4.2
Attachments                    : 383845052472320.jpg

Video
ID                             : 1
Format                         : AVC
Format/Info                    : Advanced Video Codec
Format profile                 : [email protected]
Format settings, CABAC         : Yes
Format settings, RefFrames     : 4 frames
Codec ID                       : V_MPEG4/ISO/AVC
Duration                       : 2 h 41 min
Bit rate                       : 1 052 kb/s
Width                          : 1 280 pixels
Height                         : 532 pixels
Display aspect ratio           : 2.40:1
Frame rate mode                : Constant
Frame rate                     : 24.000 FPS
Color space                    : YUV
Chroma subsampling             : 4:2:0
Bit depth                      : 8 bits
Scan type                      : Progressive
Bits/(Pixel*Frame)             : 0.064
Stream size                    : 1.19 GiB (91%)
Writing library                : x264 core 142 r2479 dd79a61
Default                        : Yes
Forced                         : No
Color range                    : Limited
Color primaries                : BT.709
Transfer characteristics       : BT.709
Matrix coefficients            : BT.709

Audio
ID                             : 2
Format                         : AAC
Format/Info                    : Advanced Audio Codec
Format profile                 : HE-AAC / LC
Codec ID                       : A_AAC
Duration                       : 2 h 41 min
Bit rate                       : 96.0 kb/s
Channel(s)                     : 2 channels
Channel positions              : Front: L R
Sampling rate                  : 48.0 kHz / 24.0 kHz
Frame rate                     : 23.438 FPS (1024 SPF)
Compression mode               : Lossy
Delay relative to video        : -105 ms
Stream size                    : 111 MiB (8%)
Title                          : Stereo
Default                        : Yes
Forced                         : No

Screen Shoots


\





Similar Torrents
  Type     Name Size Added Seeders Leechers
Non-English   Haathi Mere Saathi (2021) Hindi 720p EROS WEB-DL x264 AAC 1.3GB [Themoviesboss]
1.37 GB 1 month ago 264 18
HD   Haathi Mere Saathi (2021) 1080p Hindi TRUE WEB-HDRip x264 AAC DD 2.0 By Full4Movies
3.06 GB 1 month ago 32 0
h.264/x264   Haathi Mere Saathi (2021) 480p Hindi TRUE WEB-HDRip x264 AAC DD 2.0 By Full4Movies.
542.01 MB 1 month ago 12 0




Trackers:
udp://tracker.opentrackr.org:1337/announce

Haathi Mere Saathi (2021) 720p Hindi TRUE WEB-HDRip x264 AAC DD 2.0 By Full4Movies.
Files
Haathi Mere Saathi (2021) 720p Hindi TRUE WEB-HDRip x264 AAC DD 2.0 By Full4Movies.mkv (1.30 GB)


Comments:
No comments still posted

Powered by TT | Page Generated In 5.367294 secs.
| RSS Feed | Feed Info