Warning! Use a VPN When Downloading Torrents!
Your IP Address is . Location
Your Internet Provider can see when you download torrents! Hide your IP Address with a VPN
ProStyleX warns: You must use ProStyleX VPN to hide your torrenting. It's FREE HIDE ME NOW
Xvid/x264



First Cams

Non-English

Music

Site Friends
      ETTV

      Torrentz2

      GloDLS

      IGGGAMES

      Free Courses Online

      OneHack




Death of Me (2020) 720p BluRay Dual Audio [Hindi ORG DD 2.0 + English] x264 AAC ESub By Full4Movies


Download torrent:      
Info Hash:  F07B40DC498FCE7998FB145360D1475267527EBF
Category:  Movies > Dubs/Dual Audio
Torrent language:  Hindi  
Seeds | Leech:  6 | 0 Update seeds and leechers stat
Complete:   219
Health:   
Total Size:  967.95 MB
Added By:        full4movies
Date Added:  17-09-2021 11:38:am | Last Edit:  13-10-2021 06:29:am

IMDB
Death of Me
Death of Me
Genre Horror, Mystery, Thriller

Director Darren Lynn Bousman

Writer Ari Margolis, James Morley III, David Tish

Actors Maggie Q, Luke Hemsworth, Alex Essoe

Plot Vacationing on an island off the coast of Thailand, couple Neil and Christine awake hungover and with no memory of the previous night. They find footage on Neil's camera, and watch, horrified, as Neil appears to murder Christine. With twenty-four hours until the next ferry and a typhoon threatening the island, Christine and Neil attempt to reconstruct the night's events -- and are snared in a web of mystery, black magic, and murder.

Link http://www.imdb.com/title/tt1830643


Un système d'onglets en javascript
Description Trackers Files 1 Comments 0 Download


Visit Us = https://www.full4movies.one/



General
Complete name                  : Death of Me (2020) 720p BluRay Dual Audio [Hindi ORG DD 2.0 + English] x264 AAC ESub By Full4Movies.mkv
Format                         : Matroska
Format version                 : Version 4 / Version 2
File size                      : 968 MiB
Duration                       : 1 h 34 min
Overall bit rate               : 1 438 kb/s
Encoded date                   : UTC 2021-09-17 15:05:54
Writing application            : mkvmerge v8.3.0 ('Over the Horizon') 64bit
Writing library                : libebml v1.3.1 + libmatroska v1.4.2
Attachments                    : 383845052472320.jpg

Video
ID                             : 1
Format                         : AVC
Format/Info                    : Advanced Video Codec
Format profile                 : [email protected]
Format settings, CABAC         : Yes
Format settings, RefFrames     : 4 frames
Codec ID                       : V_MPEG4/ISO/AVC
Duration                       : 1 h 34 min
Bit rate                       : 1 084 kb/s
Width                          : 1 280 pixels
Height                         : 688 pixels
Display aspect ratio           : 1.85:1
Frame rate mode                : Variable
Frame rate                     : 23.976 FPS
Color space                    : YUV
Chroma subsampling             : 4:2:0
Bit depth                      : 8 bits
Scan type                      : Progressive
Bits/(Pixel*Frame)             : 0.051
Stream size                    : 729 MiB (75%)
Writing library                : x264 core 157
Default                        : Yes
Forced                         : No

Audio #1
ID                             : 2
Format                         : AAC
Format/Info                    : Advanced Audio Codec
Format profile                 : HE-AAC / LC
Codec ID                       : A_AAC
Duration                       : 1 h 34 min
Bit rate                       : 128 kb/s
Channel(s)                     : 2 channels
Channel positions              : Front: L R
Sampling rate                  : 48.0 kHz / 24.0 kHz
Frame rate                     : 23.438 FPS (1024 SPF)
Compression mode               : Lossy
Stream size                    : 86.1 MiB (9%)
Title                          : www.Full4movies.live
Language                       : Hindi
Default                        : Yes
Forced                         : Yes

Audio #2
ID                             : 3
Format                         : AAC
Format/Info                    : Advanced Audio Codec
Format profile                 : LC
Codec ID                       : A_AAC
Duration                       : 1 h 34 min
Bit rate                       : 224 kb/s
Channel(s)                     : 6 channels
Channel positions              : Front: L C R, Side: L R, LFE
Sampling rate                  : 48.0 kHz
Frame rate                     : 46.875 FPS (1024 SPF)
Compression mode               : Lossy
Stream size                    : 151 MiB (16%)
Language                       : English
Default                        : No
Forced                         : No

Text #1
ID                             : 4
Format                         : UTF-8
Codec ID                       : S_TEXT/UTF8
Codec ID/Info                  : UTF-8 Plain Text
Duration                       : 1 h 33 min
Bit rate                       : 46 b/s
Count of elements              : 1337
Stream size                    : 31.7 KiB (0%)
Default                        : No
Forced                         : No

Screen Shoots








Similar Torrents
  Type     Name Size Added Seeders Leechers
Dubs/Dual Audio   Death of Me (2020) 1080p BluRay Dual Audio [Hindi ORG DD 2.0 + English] x264 AAC ESub By Full4Movies
1.87 GB 1 month ago 7 0
Dubs/Dual Audio    Death of Me (2020) 480p BluRay Dual Audio [Hindi ORG DD 2.0 + English] x264 AAC ESub By Full4Movies
337.65 MB 1 month ago 7 0
Dubs/Dual Audio   Death of Me (2020) 720p WEBRip [Tamil-Dub] x264 - 1XBET
901.27 MB 9 months ago 6 2
Dubs/Dual Audio   Death of Me (2020) 720p WEBRip [Telugu-Dub] x264 - 1XBET
909.76 MB 9 months ago 6 3




Trackers:
udp://tracker.opentrackr.org:1337/announce

Death of Me (2020) 720p BluRay Dual Audio [Hindi ORG DD 2.0 + English] x264 AAC ESub By Full4Movies
Files
Death of Me (2020) 720p BluRay Dual Audio [Hindi ORG DD 2.0 + English] x264 AAC ESub By Full4Movies.mkv (967.95 MB)


Comments:
No comments still posted

Powered by TT | Page Generated In 1.225450 secs.
| RSS Feed | Feed Info