Warning! Use a VPN When Downloading Torrents!
Your IP Address is . Location
Your Internet Provider can see when you download torrents! Hide your IP Address with a VPN
ProStyleX warns: You must use ProStyleX VPN to hide your torrenting. It's FREE HIDE ME NOW
Xvid/x264



First Cams

Non-English

Music

Site Friends
      ETTV

      Torrentz2

      GloDLS

      IGGGAMES

      Free Courses Online

      OneHack




Puaada 2021 x264 720p ZEE5 WebHD Esub AAC Hindi THE GOPI SAHI


Download torrent:      
Info Hash:  CF0A1F2583E102407F75FA181E66D92BE5EFE9F3
Category:  Movies > HD
Torrent language:  Punjabi  
Seeds | Leech:  95 | 18 Update seeds and leechers stat
Complete:   11,561
Health:   
Total Size:  888.29 MB
Added By:        GOPISAHI Site FriendLoverSun
Date Added:  17-09-2021 06:06:am | Last Edit:  17-10-2021 01:28:am

IMDB
Puaada
Puaada
Genre Comedy, Drama, Musical

Director Rupinder Chahal

Writer Anil Rodhan, Rupinder Chahal, Balwinder Singh Janjua

Actors Ammy Virk, Sonam Bajwa, Hardeep Gill

Plot Puaada (Conflict/Quarrel) revolves around a lovable and exuberant man from Punjab, Jaggi (Ammy Virk) and the mesmerizing girl next door, Raunak (Sonam Bajwa). Jaggi is a farmer and supplies dairy to every family in his hometown. One such family is Raunak's whose father is an Air Force Officer. Jaggi and Raunak are in a relationship and decide to confess their love to their parents but Raunak's father disapproves of their relationship as he wanted a groom to be educated and be in the armed forces like him, and Jaggi's mom disapproves as she wants a simple village girl for her son. They families eventually agree to meet but the twist in the tale comes when Jaggi pulls away unexpectedly. This results in a Puaada (conflict/quarrel) between them and within the families, leading to hilarious situations. Puaada is a complete family romance comedy of errors, an entertainer where Jaggi and Raunak must rise above all to save their relationship and get out everyone including themselves out of this Puaada.

Link http://www.imdb.com/title/tt11024528


Un système d'onglets en javascript
Description Trackers Files 1 Comments 0 Download
Join Us On TeleGram

https://t.me/gopisahit



Puaada 2021 x264 720p ZEE5 WebHD Esub AAC Hindi THE GOPI SAHI

Format                         : Matroska
Format version                 : Version 4
File size                      : 888 MiB
Duration                       : 2 h 4 min
Overall bit rate               : 997 kb/s
Movie name                     : Puaada 2021 ZEE5 GOPI SAHI
Encoded date                   : UTC 2021-09-17 04:33:05

Video
ID                             : 1
Format                         : AVC
Format/Info                    : Advanced Video Codec
Format profile                 : [email protected]
Format settings                : CABAC / 12 Ref Frames
Format settings, CABAC         : Yes
Format settings, Reference fra : 12 frames
Codec ID                       : V_MPEG4/ISO/AVC
Duration                       : 2 h 4 min
Bit rate                       : 899 kb/s
Width                          : 1 280 pixels
Height                         : 534 pixels
Display aspect ratio           : 2.35:1
Frame rate mode                : Constant
Frame rate                     : 25.000 FPS
Color space                    : YUV
Chroma subsampling             : 4:2:0
Bit depth                      : 8 bits
Scan type                      : Progressive
Bits/(Pixel*Frame)             : 0.053
Stream size                    : 801 MiB (90%)
Title                          : GOPI SAHI
Writing library                : x264 core 163 r3059 b684ebe0

Audio
ID                             : 2
Format                         : AAC LC
Format/Info                    : Advanced Audio Codec Low Complexity
Codec ID                       : A_AAC-2
Duration                       : 2 h 4 min
Bit rate                       : 96.0 kb/s
Channel(s)                     : 2 channels
Channel layout                 : L R
Sampling rate                  : 48.0 kHz
Frame rate                     : 46.875 FPS (1024 SPF)
Compression mode               : Lossy
Delay relative to video        : -21 ms
Stream size                    : 85.6 MiB (10%)
Title                          : GOPI SAHI
Language                       : Panjabi
Default                        : Yes
Forced                         : No

Text
Language                       : English










Trackers:
udp://p4p.arenabg.com:1337/announce

This Torrent also has backup trackers
URLSeedersLeechersCompleted
http://bt1.archive.org:6969/announce918,363
http://bt2.archive.org:6969/announce818,868
http://tracker.files.fm:6969/announce418,966
https://tracker.nitrix.me:443/announce609,699

Puaada 2021 x264 720p ZEE5 WebHD Esub AAC Hindi THE GOPI SAHI
Files
Puaada 2021 x264 720p ZEE5 WebHD Esub AAC Hindi THE GOPI SAHI.mkv (888.29 MB)


Comments:
No comments still posted

Powered by TT | Page Generated In 4.878406 secs.
| RSS Feed | Feed Info