Warning! Use a VPN When Downloading Torrents!
Your IP Address is . Location
Your Internet Provider can see when you download torrents! Hide your IP Address with a VPN
ProStyleX warns: You must use ProStyleX VPN to hide your torrenting. It's FREE HIDE ME NOW
Xvid/x264



First Cams

Non-English

Music

Site Friends
      ETTV

      Torrentz2

      GloDLS

      IGGGAMES

      Free Courses Online

      OneHack




The Reunion (2011) 720p WEB-HDRip Dual Audio [Hindi ORG DD 5.1 + English] x264 AAC ESub By Full4Movi...


Download torrent:      
Info Hash:  6BCA5CD2C9CC615EC30DAB9CF1328F1650038FDD
Category:  Movies > Dubs/Dual Audio
Torrent language:  Hindi  
Seeds | Leech:  6 | 0 Update seeds and leechers stat
Complete:   160
Health:   
Total Size:  938.09 MB
Added By:        full4movies
Date Added:  17-09-2021 04:13:am | Last Edit:  16-10-2021 05:43:am

IMDB
The Reunion
The Reunion
Genre Action, Drama

Director Michael Pavone

Writer Michael Pavone

Actors John Cena, Ethan Embry, Amy Smart

Plot Sam and Leo Cleary have grown up hating each other, and neither likes their juvenile delinquent kid brother, Douglas, to whom they've only recently been introduced. The sons share the same father, a womanizing drunk, but all have different mothers. Their father died a rich man and when they're brought together by their sister Nina to learn which of them will inherit the old man's fortune, they are handed an unpleasant surprise. A requirement of the will is that the three estranged siblings go into business together as bail bondsmen. Their first job is to bring in a parole violator who has left Leo with a $250,000 debt. Their search will take them into the mountains of Mexico where they encounter a drug lord and uncover a kidnapping plot, masterminded by an embittered entrepreneur that will endanger them all.

Link http://www.imdb.com/title/tt1792543


Un système d'onglets en javascript
Description Trackers Files 1 Comments 0 Download


Visit Us = https://www.full4movies.one/



General
Complete name                  : The Reunion (2011) 720p WEB-HDRip Dual Audio [Hindi ORG DD 5.1 + English] x264 AAC ESub By Full4Movies.mkv
Format                         : Matroska
Format version                 : Version 4 / Version 2
File size                      : 938 MiB
Duration                       : 1 h 36 min
Overall bit rate               : 1 365 kb/s
Encoded date                   : UTC 2021-09-16 23:18:28
Writing application            : mkvmerge v8.3.0 ('Over the Horizon') 64bit
Writing library                : libebml v1.3.1 + libmatroska v1.4.2
Attachments                    : 383845052472320.jpg

Video
ID                             : 1
Format                         : AVC
Format/Info                    : Advanced Video Codec
Format profile                 : [email protected]
Format settings, CABAC         : Yes
Format settings, RefFrames     : 5 frames
Codec ID                       : V_MPEG4/ISO/AVC
Duration                       : 1 h 36 min
Bit rate                       : 1 152 kb/s
Width                          : 1 280 pixels
Height                         : 692 pixels
Display aspect ratio           : 1.85:1
Frame rate mode                : Constant
Frame rate                     : 23.976 (24000/1001) FPS
Color space                    : YUV
Chroma subsampling             : 4:2:0
Bit depth                      : 8 bits
Scan type                      : Progressive
Bits/(Pixel*Frame)             : 0.054
Stream size                    : 791 MiB (84%)
Writing library                : x264 core 152 r2851 ba24899
Default                        : Yes
Forced                         : No

Audio #1
ID                             : 2
Format                         : AAC
Format/Info                    : Advanced Audio Codec
Format profile                 : HE-AAC / LC
Codec ID                       : A_AAC
Duration                       : 1 h 36 min
Bit rate                       : 128 kb/s
Channel(s)                     : 2 channels
Channel positions              : Front: L R
Sampling rate                  : 48.0 kHz / 24.0 kHz
Frame rate                     : 23.438 FPS (1024 SPF)
Compression mode               : Lossy
Stream size                    : 87.9 MiB (9%)
Language                       : Hindi
Default                        : Yes
Forced                         : Yes

Audio #2
ID                             : 3
Format                         : AAC
Format/Info                    : Advanced Audio Codec
Format profile                 : LC
Codec ID                       : A_AAC
Duration                       : 1 h 36 min
Bit rate                       : 84.0 kb/s
Channel(s)                     : 2 channels
Channel positions              : Front: L R
Sampling rate                  : 48.0 kHz
Frame rate                     : 46.875 FPS (1024 SPF)
Compression mode               : Lossy
Delay relative to video        : 9 ms
Stream size                    : 57.7 MiB (6%)
Language                       : English
Default                        : No
Forced                         : No

Text #1
ID                             : 4
Format                         : UTF-8
Codec ID                       : S_TEXT/UTF8
Codec ID/Info                  : UTF-8 Plain Text
Duration                       : 1 h 32 min
Bit rate                       : 69 b/s
Count of elements              : 1242
Stream size                    : 47.4 KiB (0%)
Language                       : English
Default                        : No
Forced                         : No

Screen Shoots







Similar Torrents
  Type     Name Size Added Seeders Leechers
Dubs/Dual Audio   The Reunion (2011) 1080p WEB-HDRip Dual Audio [Hindi ORG DD 5.1 + English] x264 AAC ESub By Full4Mov...
1.90 GB 1 month ago 7 0
Dubs/Dual Audio   The Reunion (2011) 480p WEB-HDRip Dual Audio [Hindi ORG DD 2.0 + English] x264 AAC ESub By Full4Movi...
423.36 MB 1 month ago 10 0
Dubs/Dual Audio   Friends The Reunion (2021) 1080p WEBRip [Malaysian Bahasa Melayu - Dub] Dual-Audio x264
2.16 GB 3 months ago 4 0
Dubs/Dual Audio   Friends The Reunion (2021) 720p WEBRip [tamil-Dub] x264 - 1XBET
934.95 MB 4 months ago 11 1
Dubs/Dual Audio   Friends The Reunion (2021) WEB-DL [Portuguese Dub] BRAZINO777
1.36 GB 4 months ago 14 7
Dubs/Dual Audio   Friends The Reunion (2021) 720p WEB-DL [Portuguese Dub] BRAZINO777
1.72 GB 4 months ago 25 23
Dubs/Dual Audio   Friends The Reunion (2021) 1080p WEB-DL [Portuguese Dub] BRAZINO777
6.02 GB 4 months ago 5 10
HD   Friends The Reunion (2021) 1080p WEBRip x264 English AC3 5.1 - MeGUiL
2.16 GB 4 months ago 45 14
HD   Friends The Reunion (2021) 720p HDRip [Hindi-Sub] x264 1XBET
850.01 MB 4 months ago 6 2
Dubs/Dual Audio   Friends The Reunion (2021) 720p HDRip [Hindi-Dub] Dual-Audio x264 1XBET
948.68 MB 4 months ago 6 1




Trackers:
udp://tracker.opentrackr.org:1337/announce

The Reunion (2011) 720p WEB-HDRip Dual Audio [Hindi ORG DD 5.1 + English] x264 AAC ESub By Full4Movies
Files
The Reunion (2011) 720p WEB-HDRip Dual Audio [Hindi ORG DD 5.1 + English] x264 AAC ESub By Full4Movies.mkv (938.09 MB)


Comments:
No comments still posted

Powered by TT | Page Generated In 2.171060 secs.
| RSS Feed | Feed Info