Warning! Use a VPN When Downloading Torrents!
Your IP Address is . Location
Your Internet Provider can see when you download torrents! Hide your IP Address with a VPN
ProStyleX warns: You must use ProStyleX VPN to hide your torrenting. It's FREE HIDE ME NOW
Xvid/x264



First Cams

Non-English

Music

Site Friends
      ETTV

      Torrentz2

      GloDLS

      IGGGAMES

      Free Courses Online

      OneHack




What.If.2021.S01E06.DSNP.1080p.10bit.DDP.5.1.x265.[HashMiner]


Download torrent:      
Info Hash:  A646CDC4C2FEAEF7F05FC3A0527DA15CF51AE75A
Category:  TV > HEVC/x265
Torrent language:  English  
Seeds | Leech:  220 | 470 Update seeds and leechers stat
Complete:   2,602
Health:   
Total Size:  445.65 MB
Added By:        HashMiner
Date Added:  15-09-2021 09:08:am | Last Edit:  16-09-2021 09:52:am

Un système d'onglets en javascript
Description Trackers Files 2 Comments 0 Download


Encoded by HashMiner!

1337x  |  TorrentGalaxy



══════════════════════════════════════════════════════════════════════════


Audio Language: English.

Subtitles Included: English, French & more


 ══════════════════════════════════════════════════════════════════════════







Genre: Animation, Comedy, Romance.
Stars : -      
Plot: Exploring pivotal moments from the Marvel Cinematic Universe and turning them on
their head, leading the audience into uncharted territory.


 ══════════════════════════════════════════════════════════════════════════












══════════════════════════════════════════════════════════════════════════




Quote:

Extract the Code :

General
Unique ID                      : 46388577803120368753724953947467837021 (0x22E61D77A498E3B38C15DC17087A6E5D)
Complete name                  : What.If.2021.S01E06.What.If.Killmonger.Rescued.Tony.Stark.1080p.DSNP.10bit.DDP.5.1.x265.[HashMiner].mkv
Format                         : Matroska
Format version                 : Version 4 / Version 2
File size                      : 446 MiB
Duration                       : 31 min 2 s
Overall bit rate               : 2 007 kb/s
Writing library                : Lavf58.76.100
ErrorDetectionType             : Per level 1
Video
ID                             : 1
Format                         : HEVC
Format/Info                    : High Efficiency Video Coding
Format profile                 : Main [email protected]@Main
Codec ID                       : V_MPEGH/ISO/HEVC
Duration                       : 31 min 2 s
Bit rate                       : 1 455 kb/s
Width                          : 1 920 pixels
Height                         : 1 080 pixels
Display aspect ratio           : 16:9
Frame rate mode                : Constant
Frame rate                     : 23.976 (24000/1001) FPS
Color space                    : YUV
Chroma subsampling             : 4:2:0
Bit depth                      : 10 bits
Bits/(Pixel*Frame)             : 0.029
Stream size                    : 323 MiB (72%)
Writing library                : x265 3.5+1-f0c1022b6:[Windows][clang 12.0.0][64 bit] 10bit
Encoding settings              : cpuid=1111039 / frame-threads=3 / numa-pools=12 / wpp / no-pmode / no-pme / no-psnr / no-ssim / log-level=2 / input-csp=1 / input-res=1920x1080 / interlace=0 / total-frames=0 / level-idc=0 / high-tier=1 / uhd-bd=0 / ref=1 / no-allow-non-conformance / no-repeat-headers / annexb / no-aud / no-hrd / info / hash=0 / no-temporal-layers / open-gop / min-keyint=24 / keyint=240 / gop-lookahead=0 / bframes=3 / b-adapt=0 / b-pyramid / bframe-bias=0 / rc-lookahead=10 / lookahead-slices=6 / scenecut=40 / hist-scenecut=0 / radl=0 / no-splice / no-intra-refresh / ctu=32 / min-cu-size=8 / no-rect / no-amp / max-tu-size=32 / tu-inter-depth=1 / tu-intra-depth=1 / limit-tu=0 / rdoq-level=0 / dynamic-rd=0.00 / no-ssim-rd / signhide / no-tskip / nr-intra=0 / nr-inter=0 / no-constrained-intra / strong-intra-smoothing / max-merge=2 / limit-refs=0 / no-limit-modes / me=1 / subme=1 / merange=57 / temporal-mvp / no-frame-dup / no-hme / no-weightp / no-weightb / no-analyze-src-pics / deblock=0:0 / no-sao / no-sao-non-deblock / rd=2 / selective-sao=0 / early-skip / rskip / fast-intra / no-tskip-fast / no-cu-lossless / no-b-intra / no-splitrd-skip / rdpenalty=0 / psy-rd=2.00 / psy-rdoq=0.00 / no-rd-refine / no-lossless / cbqpoffs=0 / crqpoffs=0 / rc=crf / crf=20.0 / qcomp=0.60 / qpstep=4 / stats-write=0 / stats-read=0 / ipratio=1.40 / pbratio=1.30 / aq-mode=1 / aq-strength=0.00 / cutree / zone-count=0 / no-strict-cbr / qg-size=32 / no-rc-grain / qpmax=69 / qpmin=0 / no-const-vbv / sar=1 / overscan=0 / videoformat=5 / range=0 / colorprim=1 / transfer=1 / colormatrix=1 / chromaloc=0 / display-window=0 / cll=0,0 / min-luma=0 / max-luma=1023 / log2-max-poc-lsb=8 / vui-timing-info / vui-hrd-info / slices=1 / no-opt-qp-pps / no-opt-ref-list-length-pps / no-multi-pass-opt-rps / scenecut-bias=0.05 / hist-threshold=0.03 / no-opt-cu-delta-qp / no-aq-motion / no-hdr10 / no-hdr10-opt / no-dhdr10-opt / no-idr-recovery-sei / analysis-reuse-level=0 / analysis-save-reuse-level=0 / analysis-load-reuse-level=0 / scale-factor=0 / refine-intra=0 / refine-inter=0 / refine-mv=1 / refine-ctu-distortion=0 / no-limit-sao / ctu-info=0 / no-lowpass-dct / refine-analysis-type=0 / copy-pic=1 / max-ausize-factor=1.0 / no-dynamic-refine / no-single-sei / no-hevc-aq / no-svt / no-field / qp-adaptation-range=1.00 / scenecut-aware-qp=0conformance-window-offsets / right=0 / bottom=0 / decoder-max-rate=0 / no-vbv-live-multi-pass
Default                        : Yes
Forced                         : No
Color range                    : Limited
Color primaries                : BT.709
Transfer characteristics       : BT.709
Matrix coefficients            : BT.709
DURATION                       : 00:31:02.658000000
Audio
ID                             : 2
Format                         : E-AC-3
Format/Info                    : Enhanced Audio Coding 3
Format settings, Endianness    : Big
Codec ID                       : A_EAC3
Duration                       : 31 min 2 s
Bit rate mode                  : Constant
Bit rate                       : 512 kb/s
Channel(s)                     : 6 channels
Channel positions              : Front: L C R, Side: L R, LFE
Sampling rate                  : 48.0 kHz
Frame rate                     : 187.500 FPS (256 SPF)
Compression mode               : Lossy
Delay relative to video        : -5 ms
Stream size                    : 114 MiB (26%)
Title                          : Surround
Language                       : English
Service kind                   : Complete Main
Default                        : Yes
Forced                         : No
DURATION                       : 00:31:02.656000000
Text #1
ID                             : 3
Format                         : ASS
Codec ID                       : S_TEXT/ASS
Codec ID/Info                  : Advanced Sub Station Alpha
Compression mode               : Lossless
Language                       : English
Default                        : No
Forced                         : No
DURATION                       : 00:28:58.005000000
Text #2
ID                             : 4
Format                         : ASS
Codec ID                       : S_TEXT/ASS
Codec ID/Info                  : Advanced Sub Station Alpha
Compression mode               : Lossless
Title                          : SDH
Language                       : English
Default                        : No
Forced                         : No
DURATION                       : 00:29:01.088000000
Text #3
ID                             : 5
Format                         : ASS
Codec ID                       : S_TEXT/ASS
Codec ID/Info                  : Advanced Sub Station Alpha
Compression mode               : Lossless
Language                       : Danish
Default                        : No
Forced                         : No
DURATION                       : 00:31:01.546000000
Text #4
ID                             : 6
Format                         : ASS
Codec ID                       : S_TEXT/ASS
Codec ID/Info                  : Advanced Sub Station Alpha
Compression mode               : Lossless
Language                       : Dutch
Default                        : No
Forced                         : No
DURATION                       : 00:31:01.546000000
Text #5
ID                             : 7
Format                         : ASS
Codec ID                       : S_TEXT/ASS
Codec ID/Info                  : Advanced Sub Station Alpha
Compression mode               : Lossless
Language                       : Finnish
Default                        : No
Forced                         : No
DURATION                       : 00:31:01.546000000
Text #6
ID                             : 8
Format                         : ASS
Codec ID                       : S_TEXT/ASS
Codec ID/Info                  : Advanced Sub Station Alpha
Compression mode               : Lossless
Title                          : Français
Language                       : French
Default                        : No
Forced                         : No
DURATION                       : 00:31:01.546000000



 ══════════════════════════════════════════════════════════════════════════




If you like my Encodes, Please consider donating


Bitcoin: 13Gm1RLtiLspyL7NrXZmeVKCXHTC5Eih1h

Ethereum: 0x1bA096179a4E3f9d6Ce3F89Ba7b9Ff94c325AdE8

Monero:
469v2aUdtVuH8VAU9fuPkNHA2gdkkST9p8QEZ1NyBCX2ekH47R6cpb77i2j7zG989v34GiZgW8eqcDnTTAzFmexE2cPRCzA



Similar Torrents
  Type     Name Size Added Seeders Leechers
HD   What.If.2021.S01E06.1080p.DSNP.WEBRip.DDP5.1.x264-FLUX
1.48 GB 2 days ago 549 338
HD   What.If.2021.S01E06.What.If.Killmonger.Rescued.Tony.Stark.720p.marvelanddc
277.95 MB 2 days ago 322 112
HD   What.If.2021.S01E06.E.se...Killmonger.avesse.salvato.Tony.Stark.iTALIAN.MULTI.1080p.WEB.H.264-MeM.mk...
1.53 GB 2 days ago 30 40
x264   What.If.2021.S01E05.720p.WEB.H264-EMPATHY[ettv]
911.19 MB 1 wk ago 26 30
x264   What.If.2021.S01E05.1080p.WEB.H264-EMPATHY[ettv]
1.55 GB 1 wk ago 72 64
HD   What.If.2021.S01E05.What.If.Zombies.1080p.385MB[MARVELANDDC].mp4
385.47 MB 1 wk ago 383 128
HD   What.If.2021.S01E05.What.If.Zombies.1080p.DSNP.WEBRip.DDP5.1.x264-FLUX
1.48 GB 1 wk ago 934 281
HEVC/x265   What.If.2021.S01E05.DSNP.1080p.10bit.DDP.5.1.x265.[HashMiner]
471.91 MB 1 wk ago 593 117
x264   What.If.2021.S01E04.1080p.WEB.H264-EMPATHY[ettv]
1.61 GB 2 wks ago 99 100
x264   What.If.2021.S01E04.720p.WEB.H264-EMPATHY[ettv]
955.05 MB 2 wks ago 14 42




Trackers:
udp://open.stealth.si:80/announce

What.If.2021.S01E06.DSNP.1080p.10bit.DDP.5.1.x265.[HashMiner]
Files
Uploaded by HashMiner! [ReadMe].txt (1.49 kB)
What.If.2021.S01E06.What.If.Killmonger.Rescued.Tony.Stark.1080p.DSNP.10bit.DDP.5.1.x265.[HashMiner].mkv (445.65 MB)


Comments:
No comments still posted

Powered by TT | Page Generated In 1.152227 secs.
| RSS Feed | Feed Info