Warning! Use a VPN When Downloading Torrents!
Your IP Address is . Location
Your Internet Provider can see when you download torrents! Hide your IP Address with a VPN
ProStyleX warns: You must use ProStyleX VPN to hide your torrenting. It's FREE HIDE ME NOW
Xvid/x264



First Cams

Non-English

Music

Site Friends
      ETTV

      Torrentz2

      GloDLS

      IGGGAMES

      Free Courses Online

      OneHack




Escape Room Tournament of Champions (2021) [Hindi Dub] 1080p WEB-DLRip Saicord


Download torrent:      
Info Hash:  B122DE78FD380922635D66D5FBF179CE28AFF671
Category:  Movies > HD
Torrent language:  Hindi  
Seeds | Leech:  24 | 16 Update seeds and leechers stat
Complete:   22
Health:   
Total Size:  2.88 GB
Added By:        Saicord
Date Added:  14-09-2021 01:43:pm | Last Edit:  14-09-2021 11:00:pm

Un système d'onglets en javascript
Description Trackers Files 1 Comments 0 Download


https://www.imdb.com/title/tt9844522

https://youtu.be/KlfUbZJVInA






Video
ID                          : 1
Format                      : AVC
Format/Info                 : Advanced Video Codec
Format profile              : [email protected]
Format settings             : CABAC / 1 Ref Frames
Format settings, CABAC      : Yes
Format settings, Reference  : 1 frame
Codec ID                    : avc1
Codec ID/Info               : Advanced Video Coding
Duration                    : 1 h 38 min
Bit rate mode               : Constant
Bit rate                    : 4 000 kb/s
Width                       : 1 920 pixels
Height                      : 800 pixels
Display aspect ratio        : 2.40:1
Frame rate mode             : Constant
Frame rate                  : 23.976 (24000/1001) FPS
Color space                 : YUV
Chroma subsampling          : 4:2:0
Bit depth                   : 8 bits
Scan type                   : Progressive
Bits/(Pixel*Frame)          : 0.109
Stream size                 : 2.74 GiB (95%)
Codec configuration box     : avcC

Audio
ID                          : 2
Format                      : AAC LC
Format/Info                 : Advanced Audio Codec Low Complexity
Codec ID                    : mp4a-40-2
Duration                    : 1 h 38 min
Source duration             : 1 h 38 min
Bit rate mode               : Constant
Bit rate                    : 192 kb/s
Channel(s)                  : 2 channels
Channel layout              : L R
Sampling rate               : 48.0 kHz
Frame rate                  : 46.875 FPS (1024 SPF)
Compression mode            : Lossy
Stream size                 : 136 MiB (5%)
Source stream size          : 136 MiB (5%)
Default                     : Yes
Alternate group             : 1
mdhd_Duration               : 5887339


Similar Torrents
  Type     Name Size Added Seeders Leechers
HD   Escape Room Tournament of Champions (2021) [Hindi Dub] 720p WEB-DLRip Saicord
1.51 GB 5 days ago 4 6
h.264/x264   Escape Room Tournament of Champions (2021) [Hindi Dub] WEB-DLRip Saicord
981.23 MB 5 days ago 5 21
h.264/x264   Escape.Room.Tournament.of.Champions.2021.EXTENDED.CUT.SPANiSH.1080p.WEB-DL.x264-dem3nt3
4.91 GB 1 wk ago 11 69
Dubs/Dual Audio   Escape Room Tournament of Champions (2021) 1080p WEBRip [Thai - Dub] Dual-Audio x264
1.96 GB 1 wk ago 5 0
Dubs/Dual Audio   Escape Room Tournament of Champions (2021) 1080p WEBRip [Malaysian Bahasa Melayu - Dub] Dual-Audio x...
1.96 GB 1 wk ago 3 0
Dubs/Dual Audio   Escape Room Tournament of Champions (2021) 1080p WEBRip Latino Dubbed
1.44 GB 1 wk ago 9 16
h.264/x264   Escape Room Tournament of Champions (2021) 1080p HDCAM Arabian Dubbed
1.75 GB 1 wk ago 8 0
Divx/Xvid   Escape.Room.Tournament.of.Champions.2021.EXTENDED.HDRip.XviD.B4ND1T69
899.32 MB 1 wk ago 482 10
HD   Escape.room.tournament.of.champions.2021.720p.WebRip.x264.ACC.5.1.[MoviesFD]
737.99 MB 1 wk ago 14 14
HD   Escape.room.tournament.of.champions.2021.480p.WebRip.x264.ACC.[MoviesFD]
364.11 MB 1 wk ago 23 14




Trackers:
udp://opentor.org:2710/announce

Escape Room Tournament of Champions (2021) [Hindi Dub] 1080p WEB-DLRip Saicord
Files
Escape Room Tournament of Champions (2021) [Hindi Dub] 1080p WEB-DLRip Saicord.mp4 (2.88 GB)


Comments:
No comments still posted

Powered by TT | Page Generated In 1.314953 secs.
| RSS Feed | Feed Info