Warning! Use a VPN When Downloading Torrents!
Your IP Address is . Location
Your Internet Provider can see when you download torrents! Hide your IP Address with a VPN
ProStyleX warns: You must use ProStyleX VPN to hide your torrenting. It's FREE HIDE ME NOW
Xvid/x264



First Cams

Non-English

Music

Site Friends
      ETTV

      Torrentz2

      GloDLS

      IGGGAMES

      Free Courses Online

      OneHack




Back to.the.Future.Part.II.1989.720p.BluRay.999MB.HQ.x265.8bit[marvelanddc]


Download torrent:      
Info Hash:  84C6CACFD5A622C42EBC2DB9DB27DC27C1A21675
Category:  Movies > HD
Torrent language:  English  
Seeds | Leech:  107 | 66 Update seeds and leechers stat
Complete:   220
Health:   
Total Size:  1.00 GB
Added By:        marvelandc
Date Added:  14-09-2021 11:36:am | Last Edit:  14-09-2021 02:13:pm

Un système d'onglets en javascript
Description Trackers Files 2 Comments 0 Download
Movie – Back To The Future Part 2
Thanks to abhishek panthee
https://www.imdb.com/title/tt0096874/




Format                                   : MPEG-4
Format profile                           : Base Media
File size                                : 1.00 GiB
Duration                                 : 1 h 47 min
Overall bit rate                         : 1 331 kb/s
Movie name                               : Back to the Future Part II (1989)
IsTruncated                              : Yes

Video
ID                                       : 1
Format                                   : AVC
Format/Info                              : Advanced Video Codec
Format profile                           : [email protected]
Format settings                          : CABAC / 5 Ref Frames
Format settings, CABAC                   : Yes
Format settings, Reference frames        : 5 frames
Codec ID                                 : avc1
Codec ID/Info                            : Advanced Video Coding
Duration                                 : 1 h 47 min
Bit rate                                 : 4 196 kb/s
Width                                    : 1 280 pixels
Height                                   : 694 pixels
Display aspect ratio                     : 1.85:1
Frame rate mode                          : Constant
Frame rate                               : 24.000 FPS
Color space                              : YUV
Chroma subsampling                       : 4:2:0
Bit depth                                : 10 bits
Scan type                                : Progressive
Bits/(Pixel*Frame)                       : 0.056
Stream size                              : 924 MiB (90%)
Writing library                          : x264 core 160 r3000 33f9e14
Encoding settings                        : cabac=1 / ref=5 / deblock=1:0:0 / analyse=0x1:0x111 / me=hex / subme=8 / psy=1 / psy_rd=1.00:0.00 / mixed_ref=1 / me_range=16 / chroma_me=1 / trellis=2 / 8x8dct=0 / cqm=0 / deadzone=21,11 / fast_pskip=1 / chroma_qp_offset=-2 / threads=22 / lookahead_threads=3 / sliced_threads=0 / nr=0 / decimate=1 / interlaced=0 / bluray_compat=0 / constrained_intra=0 / bframes=3 / b_pyramid=2 / b_adapt=1 / b_bias=0 / direct=3 / weightb=1 / open_gop=0 / weightp=2 / keyint=120 / keyint_min=12 / scenecut=0 / intra_refresh=0 / rc_lookahead=50 / rc=crf / mbtree=1 / crf=25.0 / qcomp=0.60 / qpmin=0 / qpmax=69 / qpstep=4 / vbv_maxrate=3190 / vbv_bufsize=3190 / crf_max=0.0 / nal_hrd=none / filler=0 / ip_ratio=1.40 / aq=1:1.00
Language                                 : English
Menus                                    : 3
Codec configuration box                  : avcC

Audio
ID                                       : 2
Format                                   : AAC LC
Format/Info                              : Advanced Audio Codec Low Complexity
Codec ID                                 : mp4a-40-2
Duration                                 : 1 h 47 min
Bit rate mode                            : Constant
Bit rate                                 : 128 kb/s
Channel(s)                               : 2 channels
Channel layout                           : L R
Sampling rate                            : 48.0 kHz
Frame rate                               : 46.875 FPS (1024 SPF)
Compression mode                         : Lossy
Stream size                              : 98.9 MiB (10%)
Language                                 : English
Default                                  : Yes
Alternate group                          : 1
Menus                                    : 3

Menu #1
ID                                       : 3
Codec ID                                 : text
Duration                                 : 1 h 47 min
Language                                 : English
Menu For                                 : 1,2
00:00:00.000                             : Back from the Future
00:02:54.049                             : Main Titles
00:04:14.170                             : Hill Valley, 2015
00:12:40.927                             : Marty Junior?
00:17:05.649                             : Batter Up!
00:21:13.063                             : The Almanac
00:26:56.198                             : The Future McFlys
00:34:11.966                             : Chicken
00:38:29.015                             : Past Imperfect
00:46:13.354                             : My Father?
00:50:35.741                             : An Alternate 1985
00:55:32.913                             : About That Book
01:01:30.437                             : Back to 1955
01:07:14.489                             : Biff's Lucky Day
01:14:46.232                             : Back to the Dance
01:28:00.901                             : Get That Book!
01:34:43.595                             : Back to Normal?
01:37:46.319                             : A Letter from 1885
01:40:37.532                             : I'm Back
01:43:25.783                             : End Titles

Menu #2
00:00:00.000                             : Back from the Future
00:02:54.049                             : Main Titles
00:04:14.170                             : Hill Valley, 2015
00:12:40.927                             : Marty Junior?
00:17:05.649                             : Batter Up!
00:21:13.063                             : The Almanac
00:26:56.198                             : The Future McFlys
00:34:11.966                             : Chicken
00:38:29.015                             : Past Imperfect
00:46:13.354                             : My Father?
00:50:35.741                             : An Alternate 1985
00:55:32.913                             : About That Book
01:01:30.437                             : Back to 1955
01:07:14.489                             : Biff's Lucky Day
01:14:46.232                             : Back to the Dance
01:28:00.901                             : Get That Book!
01:34:43.595                             : Back to Normal?
01:37:46.319                             : A Letter from 1885
01:40:37.532                             : I'm Back
01:43:25.783                             : End Titles


Similar Torrents
  Type     Name Size Added Seeders Leechers
4K   Back.to.the.Future.Part.III.1990.UHD.BluRay.2160p.DD.5.1.HDR.x265-BHDStudio.mp4
13.63 GB 2 months ago 6 1
4K   Back.to.the.Future.Part.II.1989.UHD.BluRay.2160p.DD.5.1.HDR.x265-BHDStudio.mp4
12.46 GB 2 months ago 5 1
4K   Back.to.the.Future.1985.UHD.BluRay.2160p.DD.5.1.HDR.x265-BHDStudio.mp4
13.36 GB 2 months ago 6 2
4K   Back.to.the.Future.Part.III.1990.BDRip.2160pUHD.HDR10Plus.Eng.TrueHD.DD5.1.gerald99
22.43 GB 5 months ago 21 54
4K   Back.to.the.Future.Part.II.1989.BDRip.2160p.UHD.HDR10Plus.Eng.TrueHD.DD5.1.gerald99
20.65 GB 5 months ago 49 72
4K   Back.to.the.Future.1985.BDRip.2160p.UHD.HDR10Plus.Eng.TrueHD.DD5.1.gerald99
21.96 GB 5 months ago 33 42
HD   Back to the Future Part 3 (1990) 1080p BluRay x264 English AC3 5.1 - MeGUiL
3.02 GB 6 months ago 121 103
HD   Back to the Future Part 2 (1989) 1080p BluRay x264 English AC3 5.1 - MeGUiL
3.01 GB 6 months ago 96 98
HD   Back to the Future (1985) 1080p BluRay x264 English AC3 5.1 - MeGUiL
3.02 GB 6 months ago 174 86
HEVC/x265   Back.to.the.Future.3.[x265].[1080p].[ITALiAN].[MuLTi].[MaDHeX].[MaDcReW]
2.44 GB 8 months ago 67 18




Trackers:
udp://tracker.opentrackr.org:1337/announce

Back to.the.Future.Part.II.1989.720p.BluRay.999MB.HQ.x265.8bit[marvelanddc]
Files
Back to.the.Future.Part.II.1989.720p.BluRay.999MB.HQ.x265.8bit[marvelanddc].mp4 (1.00 GB)
Back to.the.Future.Part.II.1989.720p.BluRay.999MB.HQ.x265.8bit[marvelanddc].srt (90.94 kB)


Comments:
No comments still posted

Powered by TT | Page Generated In 1.384161 secs.
| RSS Feed | Feed Info