Warning! Use a VPN When Downloading Torrents!
Your IP Address is . Location
Your Internet Provider can see when you download torrents! Hide your IP Address with a VPN
ProStyleX warns: You must use ProStyleX VPN to hide your torrenting. It's FREE HIDE ME NOW
Xvid/x264



First Cams

Non-English

Music

Site Friends
      ETTV

      Torrentz2

      GloDLS

      IGGGAMES

      Free Courses Online

      OneHack




Star Trek Discovery (2017) Season 3 S03 (1080p BluRay x265 HEVC 10bit AAC 5.1 Vyndros)


Download torrent:      
Info Hash:  732B6851447E371250E49431BE10403A34B40917
Category:  TV > HEVC/x265
Torrent language:  English  
Seeds | Leech:  758 | 285 Update seeds and leechers stat
Complete:   1,935
Health:   
Total Size:  12.86 GB
Added By:        Vyndros
Date Added:  14-09-2021 10:00:am | Last Edit:  14-09-2021 04:50:pm

IMDB
Star Trek: Discovery
Star Trek: Discovery
Genre Action, Adventure, Drama

Director N/A

Writer Bryan Fuller, Alex Kurtzman

Actors Sonequa Martin-Green, Doug Jones, Anthony Rapp

Plot Ten years before Kirk, Spock, and the Enterprise, the USS Discovery discovers new worlds and lifeforms as one Starfleet officer learns to understand all things alien.

Link http://www.imdb.com/title/tt5171438


Un système d'onglets en javascript
Description Trackers Files 13 Comments 0 Download
















Media Information

General
Format                                   : Matroska
Format version                           : Version 4 / Version 2
File size                                : 973 MiB
Duration                                 : 47 min 21 s
Overall bit rate                         : 2 872 kb/s
Encoded date                             : UTC 2021-08-19 18:21:50
Writing application                      : mkvmerge v60.0.0 ('Are We Copies?') 64-bit
Writing library                          : libebml v1.4.2 + libmatroska v1.6.4

Video
ID                                       : 1
Format                                   : HEVC
Format/Info                              : High Efficiency Video Coding
Format profile                           : Main [email protected]@Main
Codec ID                                 : V_MPEGH/ISO/HEVC
Duration                                 : 47 min 21 s
Bit rate                                 : 2 404 kb/s
Width                                    : 1 920 pixels
Height                                   : 800 pixels
Display aspect ratio                     : 2.40:1
Frame rate mode                          : Constant
Frame rate                               : 23.976 (24000/1001) FPS
Color space                              : YUV
Chroma subsampling                       : 4:2:0
Bit depth                                : 10 bits
Bits/(Pixel*Frame)                       : 0.065
Stream size                              : 814 MiB (84%)
Writing library                          : x265 3.5+12+14-106329cbd:[Windows][GCC 10.3.0][64 bit] 10bit
Encoding settings                        : cpuid=1111039 / frame-threads=4 / numa-pools=16 / wpp / no-pmode / no-pme / no-psnr / ssim / log-level=2 / input-csp=1 / input-res=1920x800 / interlace=0 / total-frames=68122 / level-idc=0 / high-tier=1 / uhd-bd=0 / ref=3 / no-allow-non-conformance / no-repeat-headers / annexb / no-aud / no-eob / no-eos / no-hrd / info / hash=0 / no-temporal-layers / open-gop / min-keyint=23 / keyint=250 / gop-lookahead=0 / bframes=8 / b-adapt=2 / b-pyramid / bframe-bias=0 / rc-lookahead=80 / lookahead-slices=5 / scenecut=40 / no-hist-scenecut / radl=0 / no-splice / no-intra-refresh / ctu=64 / min-cu-size=8 / no-rect / no-amp / max-tu-size=32 / tu-inter-depth=1 / tu-intra-depth=1 / limit-tu=0 / rdoq-level=0 / dynamic-rd=0.00 / no-ssim-rd / signhide / no-tskip / nr-intra=0 / nr-inter=0 / no-constrained-intra / no-strong-intra-smoothing / max-merge=5 / limit-refs=3 / no-limit-modes / me=3 / subme=5 / merange=57 / temporal-mvp / no-frame-dup / no-hme / weightp / no-weightb / no-analyze-src-pics / deblock=0:0 / sao / no-sao-non-deblock / rd=3 / selective-sao=4 / early-skip / no-rskip / no-fast-intra / no-tskip-fast / no-cu-lossless / b-intra / no-splitrd-skip / rdpenalty=0 / psy-rd=2.00 / psy-rdoq=0.00 / no-rd-refine / no-lossless / cbqpoffs=0 / crqpoffs=0 / rc=crf / crf=20.0 / qcomp=0.60 / qpstep=4 / stats-write=0 / stats-read=0 / ipratio=1.40 / pbratio=1.30 / aq-mode=3 / aq-strength=1.00 / cutree / zone-count=0 / no-strict-cbr / qg-size=32 / no-rc-grain / qpmax=69 / qpmin=0 / no-const-vbv / sar=0 / overscan=0 / videoformat=5 / range=0 / colorprim=2 / transfer=2 / colormatrix=2 / chromaloc=0 / display-window=0 / cll=0,0 / min-luma=0 / max-luma=1023 / log2-max-poc-lsb=8 / vui-timing-info / vui-hrd-info / slices=1 / no-opt-qp-pps / no-opt-ref-list-length-pps / no-multi-pass-opt-rps / scenecut-bias=0.05 / hist-threshold=0.03 / no-opt-cu-delta-qp / no-aq-motion / no-hdr10 / no-hdr10-opt / no-dhdr10-opt / no-idr-recovery-sei / analysis-reuse-level=0 / analysis-save-reuse-level=0 / analysis-load-reuse-level=0 / scale-factor=0 / refine-intra=0 / refine-inter=0 / refine-mv=1 / refine-ctu-distortion=0 / no-limit-sao / ctu-info=0 / no-lowpass-dct / refine-analysis-type=0 / copy-pic=1 / max-ausize-factor=1.0 / no-dynamic-refine / no-single-sei / no-hevc-aq / no-svt / no-field / qp-adaptation-range=1.00 / scenecut-aware-qp=0 / conformance-window-right-offset=0 / conformance-window-bottom-offset=0 / decoder-max-rate=0 / no-vbv-live-multi-pass
Default                                  : Yes
Forced                                   : No

Audio
ID                                       : 2
Format                                   : AAC
Format/Info                              : Advanced Audio Codec
Format profile                           : LC
Codec ID                                 : A_AAC
Duration                                 : 47 min 21 s
Bit rate                                 : 446 kb/s
Channel(s)                               : 6 channels
Channel positions                        : Front: L C R, Side: L R, LFE
Sampling rate                            : 48.0 kHz
Frame rate                               : 46.875 FPS (1024 spf)
Compression mode                         : Lossy
Delay relative to video                  : 20 ms
Stream size                              : 151 MiB (16%)
Title                                    : Surround 5.1
Language                                 : English
Default                                  : Yes
Forced                                   : Yes

Subtitle #1
ID                                       : 3
Format                                   : PGS
Muxing mode                              : zlib
Codec ID                                 : S_HDMV/PGS
Codec ID/Info                            : Picture based subtitle format used on BDs/HD-DVDs
Duration                                 : 46 min 20 s
Bit rate                                 : 43.1 kb/s
Count of elements                        : 1460
Stream size                              : 14.3 MiB (1%)
Title                                    : English PGS SDH
Language                                 : English
Default                                  : No
Forced                                   : No

Subtitle #2
ID                                       : 4
Format                                   : UTF-8
Codec ID                                 : S_TEXT/UTF8
Codec ID/Info                            : UTF-8 Plain Text
Duration                                 : 46 min 20 s
Bit rate                                 : 80 b/s
Count of elements                        : 730
Stream size                              : 27.2 KiB (0%)
Title                                    : English Test SDH
Language                                 : English
Default                                  : No
Forced                                   : No

Source Information
BluRay Remux


Similar Torrents
  Type     Name Size Added Seeders Leechers
Audio   Jeff Russo - Star Trek Discovery (Season 3) [Original Series Soundtrack] (2021) Mp3 320kbps [PMEDIA]...
250.23 MB 5 months ago 42 33
Ebooks   Star Trek Discovery - Book Series 1-7 (2017-2020) epub [BooksBat]
25.16 MB 8 months ago 9 24
Packs   Star.Trek.Discovery.S03.1080p.x265-ZMNT
9.75 GB 8 months ago 21 49
Packs   Star.Trek.Discovery.S03.XviD-ZMNT
6.39 GB 8 months ago 22 37
Packs   Star.Trek.Discovery.S03.720p.x265-ZMNT
6.18 GB 8 months ago 33 56
Packs   Star.Trek.Discovery.S03.480p.x264-ZMNT
2.98 GB 8 months ago 15 39
HD   Star.Trek.Discovery.S03E13.Quella.speranza.sei.tu.Parte.2.ITA.ENG.1080p.AMZN.WEB-DL.DDP5.1.H.264-MeM...
4.28 GB 8 months ago 7 33
HEVC/x265   Star Trek Discovery (2017) Season 3 S03 (1080p AMZN WEB-DL x265 HEVC 10bit DDP 5.1 Vyndros)
14.55 GB 9 months ago 194 591
HEVC/x265   Star Trek Discovery S03E13 That Hope Is You, Part 2 1080p AMZN WEBrip x265 DDP5.1 D0ct0rLew[SEV]
2.42 GB 9 months ago 455 132
Xvid   Star.Trek.Discovery.S03E13.That.Hope.Is.You.Part.2.WEB-DL.XviD.B4ND1T69
597.43 MB 9 months ago 35 28




Trackers:
udp://tracker.tiny-vps.com:6969/announce

Star Trek Discovery (2017) Season 3 S03 (1080p BluRay x265 HEVC 10bit AAC 5.1 Vyndros)
Files
Star.Trek.Discovery.S03E01.That.Hope.Is.You.(1).1080p.10bit.BluRay.AAC5.1.HEVC-Vyndros.mkv (1.21 GB)
Star.Trek.Discovery.S03E02.Far.from.Home.1080p.10bit.BluRay.AAC5.1.HEVC-Vyndros.mkv (1.09 GB)
Star.Trek.Discovery.S03E03.People.of.Earth.1080p.10bit.BluRay.AAC5.1.HEVC-Vyndros.mkv (923.48 MB)
Star.Trek.Discovery.S03E04.Forget.Me.Not.1080p.10bit.BluRay.AAC5.1.HEVC-Vyndros.mkv (1.00 GB)
Star.Trek.Discovery.S03E05.Die.Trying.1080p.10bit.BluRay.AAC5.1.HEVC-Vyndros.mkv (1.03 GB)
Star.Trek.Discovery.S03E06.Scavengers.1080p.10bit.BluRay.AAC5.1.HEVC-Vyndros.mkv (970.37 MB)
Star.Trek.Discovery.S03E07.Unification.III.1080p.10bit.BluRay.AAC5.1.HEVC-Vyndros.mkv (791.64 MB)
Star.Trek.Discovery.S03E08.The.Sanctuary.1080p.10bit.BluRay.AAC5.1.HEVC-Vyndros.mkv (1.10 GB)
Star.Trek.Discovery.S03E09.Terra.Firma.(1).1080p.10bit.BluRay.AAC5.1.HEVC-Vyndros.mkv (819.47 MB)
Star.Trek.Discovery.S03E10.Terra.Firma.(2).1080p.10bit.BluRay.AAC5.1.HEVC-Vyndros.mkv (922.00 MB)
Star.Trek.Discovery.S03E11.Su'Kal.1080p.10bit.BluRay.AAC5.1.HEVC-Vyndros.mkv (882.51 MB)
Star.Trek.Discovery.S03E12.There.is.a.Tide….1080p.10bit.BluRay.AAC5.1.HEVC-Vyndros.mkv (972.63 MB)
Star.Trek.Discovery.S03E13.That.Hope.Is.You.(2).1080p.10bit.BluRay.AAC5.1.HEVC-Vyndros.mkv (1.29 GB)


Comments:
No comments still posted

Powered by TT | Page Generated In 1.258018 secs.
| RSS Feed | Feed Info