Warning! Use a VPN When Downloading Torrents!
Your IP Address is . Location
Your Internet Provider can see when you download torrents! Hide your IP Address with a VPN
ProStyleX warns: You must use ProStyleX VPN to hide your torrenting. It's FREE HIDE ME NOW
Xvid/x264



First Cams

Non-English

Music

Site Friends
      ETTV

      Torrentz2

      GloDLS

      IGGGAMES

      Free Courses Online

      OneHack




Tokyo.Gore.Police.2008.HC.BRRip.XviD.B4ND1T69


Download torrent:      
Info Hash:  469A881E6CA2717A09F7D299EC036E4CD02F52B7
Category:  Movies > Divx/Xvid
Torrent language:  Japanese  
Seeds | Leech:  72 | 0 Update seeds and leechers stat
Complete:   1,507
Health:   
Total Size:  1.32 GB
Added By:        B4ND1T69 Site FriendLoverSupermanManSun
Date Added:  13-09-2021 03:17:pm | Last Edit:  17-09-2021 01:57:am

IMDB
Tôkyô zankoku keisatsu
Tôkyô zankoku keisatsu
Genre Action, Comedy, Horror

Director Yoshihiro Nishimura

Writer Kengo Kaji, Maki Mizui, Yoshihiro Nishimura

Actors Eihi Shiina, Itsuji Itao, Yukihide Benny

Plot Set in a future-world vision of Tokyo where the police have been privatized and bitter self-mutilation is so casual that advertising is often specially geared to the "cutter" demographic, this is the story of samurai-sword-wielding Ruka and her mission to avenge her father's assassination. Ruka is a cop from a squad whose mission is to destroy homicidal mutant humans known as "engineers" possessing the ability to transform any injury to a weapon in and of itself.

Link https://www.imdb.com/title/tt1183732/


Un système d'onglets en javascript
Description Trackers Files 6 Comments 0 Download
Tokyo.Gore.Police.2008.HC.BRRip.XviD.B4ND1T69



Director: Yoshihiro Nishimura
Writers: Kengo Kaji(screenplay), Maki Mizui(screenplay), Yoshihiro Nishimura(screenplay)
Stars: Eihi Shiina, Itsuji Itao, Yukihide Benny

Plot/Story:
In future Tokyo, a young woman in the privatized police force tracks down her father's killer while battling against mutant rebels known as engineers.

General
Complete name               : Tokyo.Gore.Police.2008.HC.BRRip.XviD.B4ND1T69.avi
Format                      : AVI
Format/Info                 : Audio Video Interleave
File size                   : 1.32 GiB
Duration                    : 1 h 48 min
Overall bit rate            : 1 741 kb/s
Subtitles                   : Yes...Hardcoded English throughout

Video
ID                          : 0
Format                      : MPEG-4 Visual
Format profile              : Advanced [email protected]
Format settings, BVOP       : 2
Format settings, QPel       : No
Format settings, GMC        : No warppoints
Format settings, Matrix     : Default (H.263)
Codec ID                    : XVID
Codec ID/Hint               : XviD
Duration                    : 1 h 48 min
Bit rate                    : 1 600 kb/s
Width                       : 720 pixels
Height                      : 400 pixels
Display aspect ratio        : 16:9
Frame rate                  : 23.976 (24000/1001) FPS
Color space                 : YUV
Chroma subsampling          : 4:2:0
Bit depth                   : 8 bits
Scan type                   : Progressive
Compression mode            : Lossy
Bits/(Pixel*Frame)          : 0.232
Stream size                 : 1.22 GiB (92%)
Writing library             : XviD 64

Audio
ID                          : 1
Format                      : MPEG Audio
Format version              : Version 1
Format profile              : Layer 3
Codec ID                    : 55
Codec ID/Hint               : MP3
Duration                    : 1 h 48 min
Bit rate mode               : Constant
Bit rate                    : 128 kb/s
Channel(s)                  : 2 channels
Sampling rate               : 48.0 kHz
Language                    : Japanese
Compression mode            : Lossy
Stream size                 : 99.7 MiB (7%)
Alignment                   : Aligned on interleaves
Interleave, duration        : 24  ms (0.58 video frame)

Screenshots:










Please Seed For As Long As Possible
Or At Least 1:1 Ratio...Thanks
Enjoy Peeps


Similar Torrents
  Type     Name Size Added Seeders Leechers
Divx/Xvid   Tokyo.Gore.Police.2008.DUBBED.BRRip.XviD.B4ND1T69
1.32 GB 3 days ago 105 9




Trackers:
udp://tracker.opentrackr.org:1337/announce

Tokyo.Gore.Police.2008.HC.BRRip.XviD.B4ND1T69
Files
Downloaded from 1337x.txt (61.00 B)
Downloaded from ETTV.txt (55.00 B)
Downloaded from Glodls.to.txt (261.00 B)
Downloaded from ProStyleX.txt (54.00 B)
Downloaded from The Pirate Bay.txt (57.00 B)
Tokyo.Gore.Police.2008.HC.BRRip.XviD.B4ND1T69.avi (1.32 GB)


Comments:
No comments still posted

Powered by TT | Page Generated In 1.321921 secs.
| RSS Feed | Feed Info