Warning! Use a VPN When Downloading Torrents!
Your IP Address is . Location
Your Internet Provider can see when you download torrents! Hide your IP Address with a VPN
ProStyleX warns: You must use ProStyleX VPN to hide your torrenting. It's FREE HIDE ME NOW
Xvid/x264



First Cams

Non-English

Music

Site Friends
      ETTV

      Torrentz2

      GloDLS

      IGGGAMES

      Free Courses Online

      OneHack




A.Writers.Odyssey.2021.HC.BRRip.XviD.B4ND1T69


Download torrent:      
Info Hash:  9656C7CABD692884087B043D13393251634CFE9B
Category:  Movies > Divx/Xvid
Torrent language:  Chinese  
Seeds | Leech:  44 | 2 Update seeds and leechers stat
Complete:   1,715
Health:   
Total Size:  1.58 GB
Added By:        B4ND1T69 Site FriendLoverSupermanManSun
Date Added:  13-09-2021 09:37:am | Last Edit:  17-09-2021 01:17:am

Un système d'onglets en javascript
Description Trackers Files 6 Comments 0 Download
A.Writers.Odyssey.2021.HC.BRRip.XviD.B4ND1T69



Director: Yang Lu
Writers: Shu Chen, Yang Yu, Haiyan Qin
Stars: Jiayin Lei, Mi Yang, Zijian Dong

Plot/Story:
Six years after the abduction of his daughter, a man is hired to kill the author of a fantasy novel, but the world of the novel seems to intersect with reality.

General
Complete name               : A.Writers.Odyssey.2021.HC.BRRip.XviD.B4ND1T69.avi
Format                      : AVI
Format/Info                 : Audio Video Interleave
File size                   : 1.58 GiB
Duration                    : 2 h 9 min
Overall bit rate            : 1 741 kb/s
Subtitles                   : Yes...Hardcoded English throughout

Video
ID                          : 0
Format                      : MPEG-4 Visual
Format profile              : Advanced [email protected]
Format settings, BVOP       : 2
Format settings, QPel       : No
Format settings, GMC        : No warppoints
Format settings, Matrix     : Default (H.263)
Codec ID                    : XVID
Codec ID/Hint               : XviD
Duration                    : 2 h 9 min
Bit rate                    : 1 600 kb/s
Width                       : 720 pixels
Height                      : 390 pixels
Display aspect ratio        : 1.85:1
Frame rate                  : 24.000 FPS
Color space                 : YUV
Chroma subsampling          : 4:2:0
Bit depth                   : 8 bits
Scan type                   : Progressive
Compression mode            : Lossy
Bits/(Pixel*Frame)          : 0.237
Stream size                 : 1.45 GiB (92%)
Writing library             : XviD 64

Audio
ID                          : 1
Format                      : MPEG Audio
Format version              : Version 1
Format profile              : Layer 3
Codec ID                    : 55
Codec ID/Hint               : MP3
Duration                    : 2 h 9 min
Bit rate mode               : Constant
Bit rate                    : 128 kb/s
Channel(s)                  : 2 channels
Sampling rate               : 48.0 kHz
Language                    : Chinese
Compression mode            : Lossy
Stream size                 : 119 MiB (7%)
Alignment                   : Aligned on interleaves
Interleave, duration        : 24  ms (0.58 video frame)

Screenshots:










Please Seed For As Long As Possible
Or At Least 1:1 Ratio...Thanks
Enjoy Peeps


Similar Torrents
  Type     Name Size Added Seeders Leechers
Non-English   A Writers Odyssey 2021 720p Chinese WEB-DL HEVC H265 BONE
701.86 MB 4 months ago 28 29
Non-English   A.WRITERS.ODYSSEY.2021.CHINESE.WEB-DL.1080P.H264-MKVKING
2.10 GB 4 months ago 110 126
Dubs/Dual Audio   A Writers Odyssey (2021) 720p HDRip [Hindi-Dub] Dual-Audio x264
1.12 GB 4 months ago 35 15
Non-English   A Writers Odyssey 2021 1080p Chinese HDRip HC HEVC H265 BONE
1.50 GB 5 months ago 90 126




Trackers:
udp://tracker.opentrackr.org:1337/announce

A.Writers.Odyssey.2021.HC.BRRip.XviD.B4ND1T69
Files
A.Writers.Odyssey.2021.HC.BRRip.XviD.B4ND1T69.avi (1.58 GB)
Downloaded from 1337x.txt (61.00 B)
Downloaded from ETTV.txt (55.00 B)
Downloaded from Glodls.to.txt (261.00 B)
Downloaded from ProStyleX.txt (54.00 B)
Downloaded from The Pirate Bay.txt (57.00 B)


Comments:
No comments still posted

Powered by TT | Page Generated In 9.202331 secs.
| RSS Feed | Feed Info