Warning! Use a VPN When Downloading Torrents!
Your IP Address is . Location
Your Internet Provider can see when you download torrents! Hide your IP Address with a VPN
ProStyleX warns: You must use ProStyleX VPN to hide your torrenting. It's FREE HIDE ME NOW
Xvid/x264



First Cams

Non-English

Music

Site Friends
      ETTV

      Torrentz2

      GloDLS

      IGGGAMES

      Free Courses Online

      OneHack




Back.to.the.Future.Part.III.1990.UHD.BluRay.2160p.DD.5.1.HDR.x265-BHDStudio.mp4


Download torrent:      
Info Hash:  41747633ED0BEBA91F0125CA5D302383A6E4C897
Category:  Movies > 4K
Torrent language:  English  
Seeds | Leech:  6 | 1 Update seeds and leechers stat
Complete:   87
Health:   
Total Size:  13.63 GB
Added By:        noobie
Date Added:  05-07-2021 03:03:pm | Last Edit:  05-07-2021 03:04:pm

Un système d'onglets en javascript
Description Trackers Files 1 Comments 0 Download
General
Complete name                            : Back.to.the.Future.Part.III.1990.UHD.BluRay.2160p.DD.5.1.HDR.x265-BHDStudio.mp4
Format                                   : MPEG-4
Commercial name                          : HDR10
Format profile                           : Base Media
Codec ID                                 : iso4 (iso4)
File size                                : 13.6 GiB
Duration                                 : 1 h 58 min
Overall bit rate                         : 16.5 Mb/s
Encoded date                             : UTC 2020-11-10 10:17:28
Tagged date                              : UTC 2020-11-10 10:17:28

Video
ID                                       : 1
Format                                   : HEVC
Format/Info                              : High Efficiency Video Coding
Commercial name                          : HDR10
Format profile                           : Main [email protected]@Main
Codec ID                                 : hvc1
Codec ID/Info                            : High Efficiency Video Coding
Duration                                 : 1 h 58 min
Bit rate                                 : 15.9 Mb/s
Maximum bit rate                         : 35.6 Mb/s
Width                                    : 3 840 pixels
Height                                   : 2 076 pixels
Display aspect ratio                     : 1.85:1
Frame rate mode                          : Constant
Frame rate                               : 23.976 (24000/1001) FPS
Color space                              : YUV
Chroma subsampling                       : 4:2:0 (Type 2)
Bit depth                                : 10 bits
Bits/(Pixel*Frame)                       : 0.083
Stream size                              : 13.1 GiB (96%)
Writing library                          : x265 3.4+6-g73f96ff39:[Windows][GCC 11.0.0][64 bit] 10bit
Encoding settings                        : cpuid=1111039 / frame-threads=4 / numa-pools=16 / wpp / no-pmode / no-pme / no-psnr / no-ssim / log-level=2 / input-csp=1 / input-res=3840x2076 / interlace=0 / total-frames=170188 / level-idc=51 / high-tier=1 / uhd-bd=0 / ref=4 / no-allow-non-conformance / repeat-headers / annexb / aud / hrd / info / hash=0 / no-temporal-layers / no-open-gop / min-keyint=23 / keyint=240 / gop-lookahead=0 / bframes=4 / b-adapt=2 / b-pyramid / bframe-bias=0 / rc-lookahead=20 / lookahead-slices=4 / scenecut=40 / hist-scenecut=0 / radl=0 / no-splice / no-intra-refresh / ctu=64 / min-cu-size=8 / no-rect / no-amp / max-tu-size=32 / tu-inter-depth=1 / tu-intra-depth=1 / limit-tu=0 / rdoq-level=2 / dynamic-rd=0.00 / no-ssim-rd / signhide / no-tskip / nr-intra=0 / nr-inter=0 / no-constrained-intra / no-strong-intra-smoothing / max-merge=3 / limit-refs=3 / no-limit-modes / me=3 / subme=3 / merange=57 / temporal-mvp / no-frame-dup / no-hme / weightp / no-weightb / no-analyze-src-pics / deblock=-3:-3 / no-sao / no-sao-non-deblock / rd=4 / selective-sao=0 / no-early-skip / no-rskip / no-fast-intra / no-tskip-fast / no-cu-lossless / no-b-intra / no-splitrd-skip / rdpenalty=0 / psy-rd=2.00 / psy-rdoq=1.00 / no-rd-refine / no-lossless / cbqpoffs=0 / crqpoffs=0 / rc=cbr / bitrate=16000 / qcomp=0.60 / qpstep=4 / stats-write=0 / stats-read=2 / cplxblur=20.0 / qblur=0.5 / vbv-maxrate=16000 / vbv-bufsize=32000 / vbv-init=0.9 / ipratio=1.40 / pbratio=1.30 / aq-mode=3 / aq-strength=1.00 / cutree / zone-count=0 / no-strict-cbr / qg-size=32 / no-rc-grain / qpmax=69 / qpmin=0 / no-const-vbv / sar=0 / overscan=0 / videoformat=5 / range=0 / colorprim=9 / transfer=16 / colormatrix=9 / chromaloc=1 / chromaloc-top=2 / chromaloc-bottom=2 / display-window=0 / master-display=G(13250,34500)B(7500,3000)R(34000,16000)WP(15635,16450)L(40000000,50) / cll=1000,615 / min-luma=0 / max-luma=1023 / log2-max-poc-lsb=8 / vui-timing-info / vui-hrd-info / slices=1 / no-opt-qp-pps / no-opt-ref-list-length-pps / no-multi-pass-opt-rps / scenecut-bias=0.05 / hist-threshold=0.01 / no-opt-cu-delta-qp / no-aq-motion / hdr10 / no-hdr10-opt / no-dhdr10-opt / no-idr-recovery-sei / analysis-reuse-level=0 / analysis-save-reuse-level=0 / analysis-load-reuse-level=0 / scale-factor=0 / refine-intra=0 / refine-inter=0 / refine-mv=1 / refine-ctu-distortion=0 / no-limit-sao / ctu-info=0 / no-lowpass-dct / refine-analysis-type=0 / copy-pic=1 / max-ausize-factor=1.0 / no-dynamic-refine / no-single-sei / no-hevc-aq / no-svt / no-field / qp-adaptation-range=1.00 / no-scenecut-aware-qpconformance-window-offsets / right=0 / bottom=0 / decoder-max-rate=0
Encoded date                             : UTC 2020-11-10 10:17:28
Tagged date                              : UTC 2020-11-10 10:17:51
Color range                              : Limited
Color primaries                          : BT.2020
Transfer characteristics                 : PQ
Matrix coefficients                      : BT.2020 non-constant
Mastering display color primaries        : Display P3
Mastering display luminance              : min: 0.0050 cd/m2, max: 4000 cd/m2
Maximum Content Light Level              : 1000 cd/m2
Maximum Frame-Average Light Level        : 615 cd/m2
Codec configuration box                  : hvcC

Audio
ID                                       : 2
Format                                   : AC-3
Format/Info                              : Audio Coding 3
Commercial name                          : Dolby Digital
Codec ID                                 : ac-3
Duration                                 : 1 h 58 min
Bit rate mode                            : Constant
Bit rate                                 : 640 kb/s
Maximum bit rate                         : 676 kb/s
Channel(s)                               : 6 channels
Channel layout                           : L R C LFE Ls Rs
Sampling rate                            : 48.0 kHz
Frame rate                               : 31.250 FPS (1536 SPF)
Bit depth                                : 16 bits
Compression mode                         : Lossy
Stream size                              : 542 MiB (4%)
Title                                    : AC-3 5.1
Language                                 : English
Service kind                             : Complete Main
Encoded date                             : UTC 2020-11-10 10:17:49
Tagged date                              : UTC 2020-11-10 10:17:51

Menu
00:00:00.000                             : Back Again
00:02:49.336                             : Main Titles
00:05:00.133                             : A Letter From Doc
00:12:41.010                             : Doc's Destiny
00:15:48.364                             : Back to 1885
00:22:14.208                             : Clint Eastwood?
00:30:02.592                             : Mad Dog
00:33:15.118                             : Reunited
00:37:43.678                             : Out of Gas
00:41:53.302                             : Clara
00:50:42.331                             : The Town Festival
00:56:57.664                             : Trouble With Tannen
01:06:24.439                             : The Course of the Future
01:16:22.077                             : Late for a Train
01:20:43.839                             : Showdown
01:30:32.677                             : Racing Against Time
01:42:18.758                             : Back to Normal
01:46:06.235                             : Marty's Choice
01:48:06.939                             : Meet the Family
01:51:51.830                             : End Titles




Similar Torrents
  Type     Name Size Added Seeders Leechers
4K   Back.to.the.Future.Part.II.1989.UHD.BluRay.2160p.DD.5.1.HDR.x265-BHDStudio.mp4
12.46 GB 3 months ago 5 1
4K   Back.to.the.Future.1985.UHD.BluRay.2160p.DD.5.1.HDR.x265-BHDStudio.mp4
13.36 GB 3 months ago 6 2
4K   Back.to.the.Future.Part.III.1990.BDRip.2160pUHD.HDR10Plus.Eng.TrueHD.DD5.1.gerald99
22.43 GB 6 months ago 21 54
4K   Back.to.the.Future.Part.II.1989.BDRip.2160p.UHD.HDR10Plus.Eng.TrueHD.DD5.1.gerald99
20.65 GB 6 months ago 49 72
4K   Back.to.the.Future.1985.BDRip.2160p.UHD.HDR10Plus.Eng.TrueHD.DD5.1.gerald99
21.96 GB 6 months ago 33 42
HD   Back to the Future Part 3 (1990) 1080p BluRay x264 English AC3 5.1 - MeGUiL
3.02 GB 7 months ago 121 103
HD   Back to the Future Part 2 (1989) 1080p BluRay x264 English AC3 5.1 - MeGUiL
3.01 GB 7 months ago 96 98
HD   Back to the Future (1985) 1080p BluRay x264 English AC3 5.1 - MeGUiL
3.02 GB 7 months ago 174 86
HEVC/x265   Back.to.the.Future.3.[x265].[1080p].[ITALiAN].[MuLTi].[MaDHeX].[MaDcReW]
2.44 GB 9 months ago 67 18
HEVC/x265   Back.to.the.Future.2.[x265].[1080p].[ITALiAN].[MuLTi].[MaDHeX].[MaDcReW]
2.12 GB 9 months ago 68 9




Trackers:
http://tracker.mywaifu.best:6969/announce

Back.to.the.Future.Part.III.1990.UHD.BluRay.2160p.DD.5.1.HDR.x265-BHDStudio.mp4
Files
Back.to.the.Future.Part.III.1990.UHD.BluRay.2160p.DD.5.1.HDR.x265-BHDStudio.mp4 (13.63 GB)


Comments:
No comments still posted

Powered by TT | Page Generated In 1.263594 secs.
| RSS Feed | Feed Info