Warning! Use a VPN When Downloading Torrents!
Your IP Address is . Location
Your Internet Provider can see when you download torrents! Hide your IP Address with a VPN
ProStyleX warns: You must use ProStyleX VPN to hide your torrenting. It's FREE HIDE ME NOW
First Cams

Xvid/x264



Non-English

Music

Site Friends
      ETTV

      Torrentz2

      Free Courses Online

      OneHack




Sailor Of the King (1953) War, Action,Drama\Mp4[coaster]


Download torrent:      
Info Hash:  2090914C9FFA001C7B411F15E5825004A83324E1
Category:  Movies > HD
Torrent language:  English  
Seeds | Leech:  26 | 5 Update seeds and leechers stat
Complete:   206
Health:   
Total Size:  722.63 MB
Added By:        coaster Site FriendManJunkieTurtleSun
Date Added:  16-09-2020 12:02:am | Last Edit:  18-09-2020 10:45:am

IMDB
Sailor of the King
Sailor of the King
Genre Action, Drama, Romance, War

Director Roy Boulting

Writer C.S. Forester (novel), Valentine Davies (screenplay)

Actors Jeffrey Hunter, Michael Rennie, Wendy Hiller, Bernard Lee

Plot The HMS Aylesbury is sunk by the the German raider Essen. Only two men survive and are rescued by the damaged German ship. When the Germans make for an isolated harbour to repair the damage the suffered during the fight one of the men decides he must do all he can to delay the repairs and give the Royal Navy time to locate and destroy the ship.

Link http://www.imdb.com/title/tt0046267


Un système d'onglets en javascript
Description Trackers Files 1 Comments 1 Download Update Seeds & Leechers Stat
Sailor of the King.(1953)Black & White

Format : MPEG-4
Format profile : Base Media / Version 2
Codec ID : mp42 (isom/iso2/avc1/mp41)
File size : 723 MiB
Duration : 1 h 22 min
Overall bit rate mode : Variable
Overall bit rate : 1 223 kb/s
Encoded date : UTC 2020-09-12 02:17:16
Tagged date : UTC 2020-09-12 02:17:16
Writing application : HandBrake 1.1.1 2018061800

Screen Shots



Video
ID : 1
Format : AVC
Format/Info : Advanced Video Codec
Format profile : [email protected]
Format settings : CABAC / 4 Ref Frames
Format settings, CABAC : Yes
Format settings, Reference frames : 4 frames
Codec ID : avc1
Codec ID/Info : Advanced Video Coding
Duration : 1 h 22 min
Bit rate : 1 056 kb/s
Width : 640 pixels
Height : 480 pixels
Display aspect ratio : 4:3
Frame rate mode : Variable
Frame rate : 23.976 (24000/1001) FPS
Minimum frame rate : 23.974 FPS
Maximum frame rate : 23.981 FPS
Color space : YUV
Chroma subsampling : 4:2:0
Bit depth : 8 bits
Scan type : Progressive
Bits/(Pixel*Frame) : 0.143
Stream size : 624 MiB (86%)

Audio
ID : 2
Format : AAC LC
Format/Info : Advanced Audio Codec Low Complexity
Codec ID : mp4a-40-2
Duration : 1 h 22 min
Bit rate mode : Variable
Bit rate : 160 kb/s
Channel(s) : 2 channels
Channel layout : L R
Sampling rate : 48.0 kHz
Frame rate : 46.875 FPS (1024 SPF)
Compression mode : Lossy
Stream size : 94.8 MiB (13%)
Title : Stereo / Stereo







Similar Torrents
Type Name Size Added S L
Video products some Xin Tian Li Yunoki YUZUK of shown...
277.51 MB 2019-03-24 13:24:11 641 524
Video products some Xin Tian Li Yunoki YUZUK of shown...
277.51 MB 2019-03-30 14:20:48 512 288
Video FC2-PPV-1042282 sailor of the guys with me, includ...
276.66 MB 2019-04-15 08:01:10 425 748
Video FC2-PPV-1042282 sailor of the guys with me, includ...
1.41 GB 2019-03-02 22:31:20 257 169
Video FC2PPV-945499 4 months back cumshotBarre strictly ...
628.27 MB 2019-04-04 11:00:47 183 198
Video FC2-PPV-1042282 sailor of the guys with me, inclu...
1.41 GB 2019-03-02 13:15:12 13 3




Trackers:
udp://tracker.coppersurfer.tk:6969/announce

Sailor Of the King (1953) War, Action,Drama\Mp4[coaster]
Files
Mp4. sailor of the King.mp4 (722.63 MB)


Comments:

<< Previous      Next >>
1 - 1

 coasterSite FriendManJunkieTurtleSun Posted: 16-09-2020 at 08:43:45      



I like to thank all the seeders helping to keep these old movies alive ,so everybody can enjoy them .......you guys  keep the seeding up and i`ll keep uploading these all time great movies.......coaster  

1 - 1
<< Previous      Next >>


Powered by TT | Page Generated In 0.990708 secs.
| RSS Feed | Feed Info