Warning! Use a VPN When Downloading Torrents!
Your IP Address is . Location
Your Internet Provider can see when you download torrents! Hide your IP Address with a VPN
ProStyleX warns: You must use ProStyleX VPN to hide your torrenting. It's FREE HIDE ME NOW
First Cams

Xvid/x264



Non-English

Music

Site Friends
      ETTV

      Torrentz2

      Free Courses Online

      OneHack




The Blacklist (2013) Season 7 S07 (1080p BluRay x265 HEVC 10bit AAC 5.1 Vyndros)


Download torrent:      
Info Hash:  986AC0B7EF92425A4ACEA86C1233DF3C8202B831
Category:  TV > HEVC/x265
Torrent language:  English  
Seeds | Leech:  247 | 209 Update seeds and leechers stat
Complete:   1,218
Health:   
Total Size:  16.53 GB
Added By:        Vyndros
Date Added:  15-09-2020 11:35:pm | Last Edit:  17-09-2020 01:14:am

IMDB
The Blacklist
The Blacklist
Genre Crime, Drama, Mystery, Thriller

Director N/A

Writer Jon Bokenkamp

Actors James Spader, Megan Boone, Diego Klattenhoff, Harry Lennix

Plot A highly articulate, erudite and intelligent businessman and mastermind, "Red" Reddington, has allegedly been on the "10 Most Wanted List" of various U.S. law enforcement agencies for over 20 years. The legend is that Red is as elusive as he is clever, controlling a labyrinth of creative enterprises, coupled with uncanny ability to gather and finesse information at the drop of a hat. On the first day at FBI for a new female profiler fresh out of Quantico, Red offers to bandy wits with the FBI. Red promises to deliver various criminals and plots previously unknown to any branch of law enforcement... and all Red requests in return is to choose his muse.

Link http://www.imdb.com/title/tt2741602


Un système d'onglets en javascript
Description Trackers Files 38 Comments 1 Download Update Seeds & Leechers Stat














Media Information

General
Format                                   : Matroska
Format version                           : Version 4 / Version 2
File size                                : 1.05 GiB
Duration                                 : 43 min 0 s
Overall bit rate                         : 3 505 kb/s
Encoded date                             : UTC 2020-09-15 19:11:52
Writing application                      : mkvmerge v50.0.0 ('Awakenings') 64-bit
Writing library                          : libebml v1.4.0 + libmatroska v1.6.2
Writing frontend                         : StaxRip v1.7.0.6

Video
ID                                       : 1
Format                                   : HEVC
Format/Info                              : High Efficiency Video Coding
Format profile                           : Main [email protected]@Main
Codec ID                                 : V_MPEGH/ISO/HEVC
Duration                                 : 43 min 0 s
Bit rate                                 : 2 726 kb/s
Width                                    : 1 920 pixels
Height                                   : 1 080 pixels
Display aspect ratio                     : 16:9
Frame rate mode                          : Constant
Frame rate                               : 23.976 (24000/1001) FPS
Color space                              : YUV
Chroma subsampling                       : 4:2:0
Bit depth                                : 10 bits
Bits/(Pixel*Frame)                       : 0.055
Stream size                              : 839 MiB (78%)
Writing library                          : x265 3.4+1-7b120308dc64:[Windows][MSVC 1926][64 bit] 10bit
Encoding settings                        : cpuid=1111039 / frame-threads=2 / numa-pools=4 / wpp / no-pmode / no-pme / no-psnr / ssim / log-level=2 / input-csp=1 / input-res=1920x1080 / interlace=0 / total-frames=61872 / level-idc=0 / high-tier=1 / uhd-bd=0 / ref=3 / no-allow-non-conformance / no-repeat-headers / annexb / no-aud / no-hrd / info / hash=0 / no-temporal-layers / open-gop / min-keyint=23 / keyint=250 / gop-lookahead=0 / bframes=8 / b-adapt=2 / b-pyramid / bframe-bias=0 / rc-lookahead=80 / lookahead-slices=6 / scenecut=40 / hist-scenecut=0 / radl=0 / no-splice / no-intra-refresh / ctu=64 / min-cu-size=8 / no-rect / no-amp / max-tu-size=32 / tu-inter-depth=1 / tu-intra-depth=1 / limit-tu=0 / rdoq-level=0 / dynamic-rd=0.00 / no-ssim-rd / signhide / no-tskip / nr-intra=0 / nr-inter=0 / no-constrained-intra / no-strong-intra-smoothing / max-merge=5 / limit-refs=1 / no-limit-modes / me=3 / subme=5 / merange=57 / temporal-mvp / no-frame-dup / no-hme / weightp / no-weightb / no-analyze-src-pics / deblock=0:0 / sao / no-sao-non-deblock / rd=3 / selective-sao=4 / early-skip / no-rskip / no-fast-intra / no-tskip-fast / no-cu-lossless / b-intra / no-splitrd-skip / rdpenalty=0 / psy-rd=2.00 / psy-rdoq=0.00 / no-rd-refine / no-lossless / cbqpoffs=0 / crqpoffs=0 / rc=crf / crf=20.0 / qcomp=0.60 / qpstep=4 / stats-write=0 / stats-read=0 / ipratio=1.40 / pbratio=1.30 / aq-mode=3 / aq-strength=1.00 / cutree / zone-count=0 / no-strict-cbr / qg-size=32 / no-rc-grain / qpmax=69 / qpmin=0 / no-const-vbv / sar=0 / overscan=0 / videoformat=5 / range=0 / colorprim=2 / transfer=2 / colormatrix=2 / chromaloc=0 / display-window=0 / cll=0,0 / min-luma=0 / max-luma=1023 / log2-max-poc-lsb=8 / vui-timing-info / vui-hrd-info / slices=1 / no-opt-qp-pps / no-opt-ref-list-length-pps / no-multi-pass-opt-rps / scenecut-bias=0.05 / hist-threshold=0.01 / no-opt-cu-delta-qp / no-aq-motion / no-hdr10 / no-hdr10-opt / no-dhdr10-opt / no-idr-recovery-sei / analysis-reuse-level=0 / analysis-save-reuse-level=0 / analysis-load-reuse-level=0 / scale-factor=0 / refine-intra=0 / refine-inter=0 / refine-mv=1 / refine-ctu-distortion=0 / no-limit-sao / ctu-info=0 / no-lowpass-dct / refine-analysis-type=0 / copy-pic=1 / max-ausize-factor=1.0 / no-dynamic-refine / no-single-sei / no-hevc-aq / no-svt / no-field / qp-adaptation-range=1.00 / no-scenecut-aware-qpconformance-window-offsets / right=0 / bottom=0 / decoder-max-rate=0
Default                                  : Yes
Forced                                   : No

Audio #1
ID                                       : 2
Format                                   : AAC
Format/Info                              : Advanced Audio Codec
Format profile                           : LC
Codec ID                                 : A_AAC
Duration                                 : 43 min 0 s
Bit rate                                 : 475 kb/s
Channel(s)                               : 6 channels
Channel positions                        : Front: L C R, Side: L R, LFE
Sampling rate                            : 48.0 kHz
Frame rate                               : 46.875 FPS (1024 spf)
Compression mode                         : Lossy
Delay relative to video                  : 20 ms
Stream size                              : 146 MiB (14%)
Title                                    : Main Audio
Language                                 : English
Default                                  : Yes
Forced                                   : No

Audio #2
ID                                       : 3
Format                                   : AC-3
Format/Info                              : Audio Coding 3
Format profile                           : Dolby Digital
Mode extension                           : CM (complete main)
Format settings, Endianness              : Big
Codec ID                                 : A_AC3
Duration                                 : 43 min 0 s
Bit rate mode                            : Constant
Bit rate                                 : 192 kb/s
Channel(s)                               : 2 channels
Channel positions                        : Front: L R
Sampling rate                            : 48.0 kHz
Frame rate                               : 31.250 FPS (1536 spf)
Bit depth                                : 16 bits
Compression mode                         : Lossy
Stream size                              : 59.1 MiB (5%)
Title                                    : Commentary by actor Harry Lennix and writer Sean Hennen
Language                                 : English
Default                                  : No
Forced                                   : No

Subtitle #1
ID                                       : 4
Format                                   : PGS
Muxing mode                              : zlib
Codec ID                                 : S_HDMV/PGS
Codec ID/Info                            : Picture based subtitle format used on BDs/HD-DVDs
Duration                                 : 12 min 35 s
Bit rate                                 : 894 b/s
Count of elements                        : 14
Stream size                              : 82.5 KiB (0%)
Title                                    : Forced for non-English dialogue
Language                                 : English
Default                                  : Yes
Forced                                   : Yes

Subtitle #2
ID                                       : 5
Format                                   : PGS
Muxing mode                              : zlib
Codec ID                                 : S_HDMV/PGS
Codec ID/Info                            : Picture based subtitle format used on BDs/HD-DVDs
Duration                                 : 42 min 4 s
Bit rate                                 : 45.8 kb/s
Count of elements                        : 1220
Stream size                              : 13.8 MiB (1%)
Title                                    : English (USA)
Language                                 : English
Default                                  : No
Forced                                   : No

Subtitle #3
ID                                       : 6
Format                                   : PGS
Muxing mode                              : zlib
Codec ID                                 : S_HDMV/PGS
Codec ID/Info                            : Picture based subtitle format used on BDs/HD-DVDs
Duration                                 : 42 min 23 s
Bit rate                                 : 48.1 kb/s
Count of elements                        : 1336
Stream size                              : 14.6 MiB (1%)
Title                                    : English SDH (USA)
Language                                 : English
Default                                  : No
Forced                                   : No

Subtitle #4
ID                                       : 7
Format                                   : PGS
Muxing mode                              : zlib
Codec ID                                 : S_HDMV/PGS
Codec ID/Info                            : Picture based subtitle format used on BDs/HD-DVDs
Duration                                 : 42 min 48 s
Bit rate                                 : 68.6 kb/s
Count of elements                        : 1464
Stream size                              : 21.0 MiB (2%)
Title                                    : Commentary
Language                                 : English
Default                                  : No
Forced                                   : No

Subtitle #5
ID                                       : 8
Format                                   : PGS
Muxing mode                              : zlib
Codec ID                                 : S_HDMV/PGS
Codec ID/Info                            : Picture based subtitle format used on BDs/HD-DVDs
Duration                                 : 42 min 48 s
Bit rate                                 : 71.8 kb/s
Count of elements                        : 1510
Stream size                              : 22.0 MiB (2%)
Title                                    : Commentary (SDH)
Language                                 : English
Default                                  : No
Forced                                   : No

Source Information
BluRay Remux


Similar Torrents
Type Name Size Added S L
Video Buy carrier packaging Ave identification by broker...
466.23 MB 2019-04-13 18:44:58 2708 2591
Video Buy carrier packaging Ave identification by broker...
466.23 MB 2019-04-16 11:47:07 2518 1073
Video Chongqing Empress, a Sake Bar Inn, got drunk on th...
493.96 MB 2019-07-09 03:04:01 2239 3051
Video Koharu and the case is with 2 years. Liked each ot...
879.94 MB 2019-02-23 08:05:29 1442 2371
Audio The Black Eyed Peas - Masters Of The Sun (2018) MP...
140.16 MB 2018-10-29 19:45:47 1436 197
Video SCPX-341 living alone of a room came big cousin t...
1.60 GB 2019-02-24 13:14:11 1235 804
Video TIKF-033 Nikkan black GALnaive and not the black ...
1.16 GB 2019-05-27 15:09:55 1231 538
Video It may interest some sites related Xin Tian girl ...
181.05 MB 2019-04-13 19:15:07 1077 468
x264 The.Blacklist.S05E19.HDTV.x264-SVA[ettv]
265.19 MB 2018-04-26 09:01:26 917 87
Video KAWD-932 been together for 2 years. Liked each oth...
879.94 MB 2019-02-12 20:04:47 916 763




Trackers:
udp://tracker.coppersurfer.tk:6969/announce

The Blacklist (2013) Season 7 S07 (1080p BluRay x265 HEVC 10bit AAC 5.1 Vyndros)
Files
The.Blacklist.S07E01.Louis.T.Steinhil.(1).1080p.10bit.BluRay.AAC5.1.HEVC-Vyndros.mkv (988.10 MB)
The.Blacklist.S07E01.Louis.T.Steinhil.(1).1080p.10bit.BluRay.AAC5.1.HEVC-Vyndros.srt (47.87 kB)
The.Blacklist.S07E02.Louis.T.Steinhil.Conclusion.(2).1080p.10bit.BluRay.AAC5.1.HEVC-Vyndros.mkv (866.48 MB)
The.Blacklist.S07E02.Louis.T.Steinhil.Conclusion.(2).1080p.10bit.BluRay.AAC5.1.HEVC-Vyndros.srt (48.60 kB)
The.Blacklist.S07E03.Les.Fleurs.du.Mal.1080p.10bit.BluRay.AAC5.1.HEVC-Vyndros.mkv (847.27 MB)
The.Blacklist.S07E03.Les.Fleurs.du.Mal.1080p.10bit.BluRay.AAC5.1.HEVC-Vyndros.srt (45.09 kB)
The.Blacklist.S07E04.Kuwait.1080p.10bit.BluRay.AAC5.1.HEVC-Vyndros.mkv (1.05 GB)
The.Blacklist.S07E04.Kuwait.1080p.10bit.BluRay.AAC5.1.HEVC-Vyndros.srt (48.30 kB)
The.Blacklist.S07E05.Norman.Devane.1080p.10bit.BluRay.AAC5.1.HEVC-Vyndros.mkv (850.11 MB)
The.Blacklist.S07E05.Norman.Devane.1080p.10bit.BluRay.AAC5.1.HEVC-Vyndros.srt (51.27 kB)
The.Blacklist.S07E06.Dr.Lewis.Powell.1080p.10bit.BluRay.AAC5.1.HEVC-Vyndros.mkv (937.05 MB)
The.Blacklist.S07E06.Dr.Lewis.Powell.1080p.10bit.BluRay.AAC5.1.HEVC-Vyndros.srt (55.33 kB)
The.Blacklist.S07E07.Hannah.Hayes.1080p.10bit.BluRay.AAC5.1.HEVC-Vyndros.mkv (1.00 GB)
The.Blacklist.S07E07.Hannah.Hayes.1080p.10bit.BluRay.AAC5.1.HEVC-Vyndros.srt (51.36 kB)
The.Blacklist.S07E08.The.Hawaladar.1080p.10bit.BluRay.AAC5.1.HEVC-Vyndros.mkv (917.83 MB)
The.Blacklist.S07E08.The.Hawaladar.1080p.10bit.BluRay.AAC5.1.HEVC-Vyndros.srt (52.54 kB)
The.Blacklist.S07E09.Orion.Relocation.Services.1080p.10bit.BluRay.AAC5.1.HEVC-Vyndros.mkv (822.10 MB)
The.Blacklist.S07E09.Orion.Relocation.Services.1080p.10bit.BluRay.AAC5.1.HEVC-Vyndros.srt (51.05 kB)
The.Blacklist.S07E10.Katarina.Rostova.1080p.10bit.BluRay.AAC5.1.HEVC-Vyndros.mkv (845.24 MB)
The.Blacklist.S07E10.Katarina.Rostova.1080p.10bit.BluRay.AAC5.1.HEVC-Vyndros.srt (48.65 kB)
The.Blacklist.S07E11.Victoria.Fenberg.1080p.10bit.BluRay.AAC5.1.HEVC-Vyndros.mkv (842.14 MB)
The.Blacklist.S07E11.Victoria.Fenberg.1080p.10bit.BluRay.AAC5.1.HEVC-Vyndros.srt (55.92 kB)
The.Blacklist.S07E12.Cornelius.Ruck.1080p.10bit.BluRay.AAC5.1.HEVC-Vyndros.mkv (688.66 MB)
The.Blacklist.S07E12.Cornelius.Ruck.1080p.10bit.BluRay.AAC5.1.HEVC-Vyndros.srt (41.91 kB)
The.Blacklist.S07E13.Newton.Purcell.1080p.10bit.BluRay.AAC5.1.HEVC-Vyndros.mkv (838.96 MB)
The.Blacklist.S07E13.Newton.Purcell.1080p.10bit.BluRay.AAC5.1.HEVC-Vyndros.srt (50.99 kB)
The.Blacklist.S07E14.Twamie.Ullulaq.1080p.10bit.BluRay.AAC5.1.HEVC-Vyndros.mkv (974.49 MB)
The.Blacklist.S07E14.Twamie.Ullulaq.1080p.10bit.BluRay.AAC5.1.HEVC-Vyndros.srt (48.43 kB)
The.Blacklist.S07E15.Gordon.Kemp.1080p.10bit.BluRay.AAC5.1.HEVC-Vyndros.mkv (804.57 MB)
The.Blacklist.S07E15.Gordon.Kemp.1080p.10bit.BluRay.AAC5.1.HEVC-Vyndros.srt (53.86 kB)
The.Blacklist.S07E16.Nyle.Hatcher.1080p.10bit.BluRay.AAC5.1.HEVC-Vyndros.mkv (770.67 MB)
The.Blacklist.S07E16.Nyle.Hatcher.1080p.10bit.BluRay.AAC5.1.HEVC-Vyndros.srt (50.83 kB)
The.Blacklist.S07E17.Brothers.1080p.10bit.BluRay.AAC5.1.HEVC-Vyndros.mkv (758.75 MB)
The.Blacklist.S07E17.Brothers.1080p.10bit.BluRay.AAC5.1.HEVC-Vyndros.srt (42.55 kB)
The.Blacklist.S07E18.Roy.Cain.1080p.10bit.BluRay.AAC5.1.HEVC-Vyndros.mkv (691.00 MB)
The.Blacklist.S07E18.Roy.Cain.1080p.10bit.BluRay.AAC5.1.HEVC-Vyndros.srt (54.65 kB)
The.Blacklist.S07E19.The.Kazanjian.Brothers.1080p.10bit.BluRay.AAC5.1.HEVC-Vyndros.mkv (1.35 GB)
The.Blacklist.S07E19.The.Kazanjian.Brothers.1080p.10bit.BluRay.AAC5.1.HEVC-Vyndros.srt (55.52 kB)


Comments:

<< Previous      Next >>
1 - 1

 nanchyLoverSun Posted: 16-09-2020 at 21:02:06      



love blacklist, thanks =D

1 - 1
<< Previous      Next >>


Powered by TT | Page Generated In 1.544093 secs.
| RSS Feed | Feed Info