Warning! Use a VPN When Downloading Torrents!
Your IP Address is . Location
Your Internet Provider can see when you download torrents! Hide your IP Address with a VPN
ProStyleX warns: You must use ProStyleX VPN to hide your torrenting. It's FREE HIDE ME NOW
First Cams

Xvid/x264



Non-English

Music

Site Friends
      ETTV

      Torrentz2

      Free Courses Online

      OneHack




18+.Wasp.Network.2020.720p.NF.WEBRip.X264.DD.5.1.With.Sample.LLG


Download torrent:      
Info Hash:  81AAE750365E97BBADFF424EDCA6F7FF98C852D9
Category:  Movies > HD
Torrent language:  English  
Seeds | Leech:  96 | 16 Update seeds and leechers stat
Complete:   3,612
Health:   
Total Size:  1.44 GB
Added By:        LifeLongg Site FriendLoverSun
Date Added:  15-09-2020 04:23:pm | Last Edit:  21-09-2020 09:51:pm

Un système d'onglets en javascript
Description Trackers Files 3 Comments 0 Download Update Seeds & Leechers Stat

Quote:



******************************Thumbnbil:**********************




******************************Screenshots:********************

screenshot 1

screenshot 2

screenshot 3

screenshot 4

screenshot 5

screenshot 6

screenshot 7

screenshot 8

screenshot 9

screenshot 0


******************************************************

18+.Wasp.Network.2020.720p.NF.WEBRip.X264.DD.5.1.With.Sample.LLG.mp4
Format                                   : MPEG-4
Format profile                           : Base Media
Codec ID                                 : isom (isom/iso2/avc1/mp41)
File size                                : 1.42 GiB
Duration                                 : 2 h 8 min
Overall bit rate mode                    : Variable
Overall bit rate                         : 1 590 kb/s
Writing application                      : Lavf57.83.100

Video
ID                                       : 1
Format                                   : AVC
Format/Info                              : Advanced Video Codec
Format profile                           : [email protected]
Format settings                          : CABAC / 1 Ref Frames
Format settings, CABAC                   : Yes
Format settings, Reference frames        : 1 frame
Codec ID                                 : avc1
Codec ID/Info                            : Advanced Video Coding
Duration                                 : 2 h 8 min
Bit rate mode                            : Variable
Bit rate                                 : 1 202 kb/s
Maximum bit rate                         : 3 600 kb/s
Width                                    : 1 280 pixels
Height                                   : 532 pixels
Display aspect ratio                     : 2.40:1
Original display aspect ratio            : 2.40:1
Frame rate mode                          : Constant
Frame rate                               : 24.000 FPS
Color space                              : YUV
Chroma subsampling                       : 4:2:0
Bit depth                                : 8 bits
Scan type                                : Progressive
Bits/(Pixel*Frame)                       : 0.074
Stream size                              : 1.07 GiB (76%)
Codec configuration box                  : avcC

Audio
ID                                       : 2
Format                                   : AC-3
Format/Info                              : Audio Coding 3
Commercial name                          : Dolby Digital
Codec ID                                 : ac-3
Duration                                 : 2 h 8 min
Bit rate mode                            : Constant
Bit rate                                 : 384 kb/s
Channel(s)                               : 6 channels
Channel layout                           : L R C LFE Ls Rs
Sampling rate                            : 48.0 kHz
Frame rate                               : 31.250 FPS (1536 SPF)
Compression mode                         : Lossy
Stream size                              : 352 MiB (24%)
Language                                 : English
Service kind                             : Complete Main
Default                                  : Yes
Alternate group                          : 1




********************************************************




Similar Torrents
Type Name Size Added S L
Divx/Xvid 18+.Wasp.Network.2020.HDRip.XviD.AC3.With.Sample.L...
1.16 GB 2020-08-24 10:46:38 20 4
HD 18+.Wasp.Network.2020.720p.NF.WEBRip.X264.DD.5.1.L...
1.44 GB 2020-06-25 06:09:05 2 0




Trackers:
udp://tracker.openbittorrent.com:80/announce

18+.Wasp.Network.2020.720p.NF.WEBRip.X264.DD.5.1.With.Sample.LLG
Files
18+.Wasp.Network.2020.720p.NF.WEBRip.X264.DD.5.1.With.Sample.LLG.mp4 (1.42 GB)
Poster.jpg (9.57 kB)
Sample 2.ts (19.71 MB)


Comments:
No comments still posted

Powered by TT | Page Generated In 0.914105 secs.
| RSS Feed | Feed Info