Warning! Use a VPN When Downloading Torrents!
Your IP Address is . Location
Your Internet Provider can see when you download torrents! Hide your IP Address with a VPN
ProStyleX warns: You must use ProStyleX VPN to hide your torrenting. It's FREE HIDE ME NOW
First Cams

Xvid/x264



Non-English

Music

Site Friends
      ETTV

      Torrentz2

      Free Courses Online

      OneHack




After.2.2020.HDCAM.x264.LLG


Download torrent:      
Info Hash:  529224A117FD5C5904150763A42A5BDB92F07F88
Category:  Movies > Cam/TS
Torrent language:  English  
Seeds | Leech:  20 | 8 Update seeds and leechers stat
Complete:   1,742
Health:   
Total Size:  927.10 MB
Added By:        LifeLongg Site FriendLoverSun
Date Added:  08-09-2020 12:00:pm | Last Edit:  18-09-2020 07:16:am

IMDB
After We Collided
After We Collided
Genre Drama, Romance

Director Roger Kumble

Writer Anna Todd (screenplay by), Mario Celaya (screenplay by), Anna Todd (based on the novel by)

Actors Josephine Langford, Hero Fiennes Tiffin, Louise Lombard, Dylan Sprouse

Plot Based on the 2014 romance novel of the same name, this follows the love life of two young adults.

Link https://www.imdb.com/title/tt10362466/


Un système d'onglets en javascript
Description Trackers Files 2 Comments 1 Download Update Seeds & Leechers Stat

Quote:



******************************Thumbnbil:**********************




******************************Screenshots:********************

screenshot 1

screenshot 2

screenshot 3

screenshot 4

screenshot 5

screenshot 6

screenshot 7

screenshot 8

screenshot 9

screenshot 0


******************************************************

After.2.2020.HDCAM.x264.LLG.mp4
Format                                   : MPEG-4
Format profile                           : Base Media
Codec ID                                 : isom (isom/iso2/avc1/mp41)
File size                                : 925 MiB
Duration                                 : 1 h 36 min
Overall bit rate mode                    : Variable
Overall bit rate                         : 1 335 kb/s


Video
ID                                       : 1
Format                                   : AVC
Format/Info                              : Advanced Video Codec
Format profile                           : [email protected]
Format settings                          : CABAC / 1 Ref Frames
Format settings, CABAC                   : Yes
Format settings, Reference frames        : 1 frame
Codec ID                                 : avc1
Codec ID/Info                            : Advanced Video Coding
Duration                                 : 1 h 36 min
Bit rate mode                            : Variable
Bit rate                                 : 1 202 kb/s
Maximum bit rate                         : 3 600 kb/s
Width                                    : 720 pixels
Height                                   : 304 pixels
Display aspect ratio                     : 2.40:1
Original display aspect ratio            : 2.40:1
Frame rate mode                          : Constant
Frame rate                               : 23.976 (23976/1000) FPS
Original frame rate                      : 23.976 (24000/1001) FPS
Color space                              : YUV
Chroma subsampling                       : 4:2:0
Bit depth                                : 8 bits
Scan type                                : Progressive
Bits/(Pixel*Frame)                       : 0.229
Stream size                              : 833 MiB (90%)
Codec configuration box                  : avcC

Audio
ID                                       : 2
Format                                   : AAC LC
Codec ID                                 : mp4a-40-2
Duration                                 : 1 h 36 min
Bit rate mode                            : Constant
Bit rate                                 : 129 kb/s
Channel(s)                               : 2 channels
Channel layout                           : L R
Sampling rate                            : 48.0 kHz
Frame rate                               : 46.875 FPS (1024 SPF)
Compression mode                         : Lossy
Stream size                              : 89.2 MiB (10%)
Language                                 : English
Default                                  : Yes
Alternate group                          : 1



********************************************************




Similar Torrents
Type Name Size Added S L
Cam/TS After 2 (2020) 720p HDCAM [Hindi-Dub] Dual-Audio x...
946.91 MB 2020-09-14 12:39:24 74 7
Video GOPJ-079 VRdramatic quality 100cmI Cup Titshusband...
5.07 GB 2019-05-04 16:33:54 4 11
Cam/TS After 2 (2020) 720p HDCAM [Hindi-Sub] x264 - 1XBET
1,007.32 MB 2020-09-09 07:55:41 2 1




Trackers:
udp://tracker.openbittorrent.com:80/announce

After.2.2020.HDCAM.x264.LLG
Files
After.2.2020.HDCAM.x264.LLG.mp4 (924.93 MB)
Sample.mp4 (2.17 MB)


Comments:

<< Previous      Next >>
1 - 1

 MekkkkkLoverSun Posted: 09-09-2020 at 06:03:59      



Thanks

1 - 1
<< Previous      Next >>


Powered by TT | Page Generated In 0.977115 secs.
| RSS Feed | Feed Info