Warning! Use a VPN When Downloading Torrents!
Your IP Address is . Location
Your Internet Provider can see when you download torrents! Hide your IP Address with a VPN
ProStyleX warns: You must use ProStyleX VPN to hide your torrenting. It's FREE HIDE ME NOW
First Cams

Xvid/x264



Non-English

Music

Site Friends
      ETTV

      Torrentz2

      Free Courses Online

      OneHack




Tenet.2020.HC.HDTC.XviD.B4ND1T69


Download torrent:      
Info Hash:  7A8C87E03A5EF58F487D532BE132C7D201243EFA
Category:  Movies > Cam/TS
Torrent language:  English  
Seeds | Leech:  2,903 | 969 Update seeds and leechers stat
Complete:   58,960
Health:   
Total Size:  1.88 GB
Added By:        B4ND1T69 Site FriendLoverSupermanManSun
Date Added:  07-09-2020 05:55:pm | Last Edit:  20-09-2020 04:22:pm

IMDB
Tenet
Tenet
Genre Action, Sci-Fi

Director Christopher Nolan

Writer Christopher Nolan

Actors Elizabeth Debicki, Robert Pattinson, John David Washington, Aaron Taylor-Johnson

Plot Armed with only one word, Tenet, and fighting for the survival of the entire world, a Protagonist journeys through a twilight world of international espionage on a mission that will unfold in something beyond real time.

Link http://www.imdb.com/title/tt6723592


Un système d'onglets en javascript
Description Trackers Files 8 Comments 2 Download Update Seeds & Leechers Stat
Tenet.2020.HC.HDTC.XviD.B4ND1T69



Director: Christopher Nolan
Writer: Christopher Nolan
Stars: John David Washington, Robert Pattinson, Elizabeth Debicki

Plot/Story:
Armed with only one word, Tenet, and fighting for the survival of the entire world, a Protagonist journeys through a twilight world of international espionage on a mission that will unfold in something beyond real time.

Notes:
Clean Print, NO Ads, Logo's, site addy's or floaty shit...just the movie.
Ran some filters to clean up the image, reduced the flicker, re-balanced the colors, brightness, contrast, gamma and sharpened the image...Samples included, Enjoy :@)

General
Complete name               : Tenet.2020.HC.HDTC.XviD.B4ND1T69.avi
Format                      : AVI
Format/Info                 : Audio Video Interleave
File size                   : 1.81 GiB
Duration                    : 2 h 30 min
Overall bit rate            : 1 724 kb/s
Samples                     : Yes...Included(3)
Subtitles                   : Hardcoded Chinese throughout + Hardcoded English for non-English parts.

Video
ID                          : 0
Format                      : MPEG-4 Visual
Format profile              : Advanced [email protected]
Format settings, BVOP       : 2
Format settings, QPel       : No
Format settings, GMC        : No warppoints
Format settings, Matrix     : Default (H.263)
Codec ID                    : XVID
Codec ID/Hint               : XviD
Duration                    : 2 h 30 min
Bit rate                    : 1 582 kb/s
Width                       : 720 pixels
Height                      : 336 pixels
Display aspect ratio        : 2.143
Frame rate                  : 30.303 FPS
Color space                 : YUV
Chroma subsampling          : 4:2:0
Bit depth                   : 8 bits
Scan type                   : Progressive
Compression mode            : Lossy
Bits/(Pixel*Frame)          : 0.216
Stream size                 : 1.66 GiB (92%)
Writing library             : XviD 64

Audio
ID                          : 1
Format                      : MPEG Audio
Format version              : Version 1
Format profile              : Layer 3
Codec ID                    : 55
Codec ID/Hint               : MP3
Duration                    : 2 h 30 min
Bit rate mode               : Constant
Bit rate                    : 128 kb/s
Channel(s)                  : 2 channels
Sampling rate               : 48.0 kHz
Compression mode            : Lossy
Stream size                 : 137 MiB (7%)
Alignment                   : Aligned on interleaves
Interleave, duration        : 24  ms (0.73 video frame)

Screenshots:












Please Seed For As Long As Possible
Or At Least 1:1 Ratio...Thanks
Enjoy Peeps


Similar Torrents
Type Name Size Added S L
Cam/TS Tenet.2020.HC.HDCam.XviD.B4ND1T69
1.75 GB 2020-08-30 11:11:24 2590 1752
Cam/TS Tenet.2020.1080p.KOREAN.CAM.H264.AC3.WARRIORS
2.62 GB 2020-08-30 20:06:11 1199 769
Cam/TS Tenet.2020.720p.NEW.HDCAM.x264-C1NEM4
2.65 GB 2020-08-30 11:31:54 849 97
Cam/TS Tenet.2020.HC.HDTC.XviD.MP3.LLG
1.36 GB 2020-09-08 10:20:56 494 178
Cam/TS Tenet.2020.HC.HDCam.XviD.MP3.Without.Ads&Water...
1.35 GB 2020-08-31 01:55:14 168 50
Cam/TS Tenet.2020.720p.KOREAN.CAM.H264.AC3.LLG
1.11 GB 2020-08-31 07:00:27 76 54




Trackers:
udp://tracker.coppersurfer.tk:6969/announce

Tenet.2020.HC.HDTC.XviD.B4ND1T69
Files
Downloaded from 1337x.txt (61.00 B)
Downloaded from ETTV.txt (55.00 B)
Downloaded from newkatcr.co.txt (139.00 B)
Downloaded from ProStyleX.txt (54.00 B)
Sample-1.avi (31.46 MB)
Sample-2.avi (24.39 MB)
Sample-3.avi (21.08 MB)
Tenet.2020.HC.HDTC.XviD.B4ND1T69.avi (1.81 GB)


Comments:

<< Previous      Next >>
1 - 2

 nanchyLoverSun Posted: 08-09-2020 at 07:10:27      



txxxxxxxx

 MekkkkkLoverSun Posted: 08-09-2020 at 04:37:35      



Ty

1 - 2
<< Previous      Next >>


Powered by TT | Page Generated In 4.255832 secs.
| RSS Feed | Feed Info