Warning! Use a VPN When Downloading Torrents!
Your IP Address is . Location
Your Internet Provider can see when you download torrents! Hide your IP Address with a VPN
ProStyleX warns: You must use ProStyleX VPN to hide your torrenting. It's FREE HIDE ME NOW
First Cams

Xvid/x264



Non-English

Music

Site Friends
      ETTV

      Torrentz2

      Free Courses Online

      OneHack




The.New.Mutants.2020.720p.HDCAM-C1NEM4


Download torrent:      
Info Hash:  6728243953F0E28F92308B165923BA32F94FD77D
Category:  Movies > Cam/TS
Torrent language:  English  
Seeds | Leech:  3,211 | 1,284 Update seeds and leechers stat
Complete:   89,607
Health:   
Total Size:  1.98 GB
Added By:        Silmarillion Site FriendLoverManTurtleSun
Date Added:  30-08-2020 12:32:pm | Last Edit:  20-09-2020 05:31:pm

IMDB
The New Mutants
The New Mutants
Genre Action, Horror, Sci-Fi

Director Josh Boone

Writer Josh Boone, Knate Lee

Actors Maisie Williams, Anya Taylor-Joy, Charlie Heaton, Alice Braga

Plot Five young mutants, just discovering their abilities while held in a secret facility against their will, fight to escape their past sins and save themselves.

Link https://www.imdb.com/title/tt4682266/


Un système d'onglets en javascript
Description Trackers Files 2 Comments 1 Download Update Seeds & Leechers Stat


Torrent Downloaded From ProstyleX
For More Exclusive Stuff Visit Us https://prostylex.org

https://www.imdb.com/title/tt4682266/

General
Format                                   : Matroska
Format version                           : Version 4
File size                                : 1.98 GiB
Duration                                 : 1 h 27 min
Overall bit rate mode                    : Variable
Overall bit rate                         : 3 244 kb/s
Encoded date                             : UTC 2020-08-27 15:09:22
Writing application                      : TMPGEnc Video Mastering Works 7 Version 7.0.11.12
Writing library                          : TMPGEnc Video Mastering Works 7 Version 7.0.11.12

Video
ID                                       : 1
Format                                   : AVC
Format/Info                              : Advanced Video Codec
Format profile                           : [email protected]
Format settings                          : CABAC / 6 Ref Frames
Format settings, CABAC                   : Yes
Format settings, Reference frames        : 6 frames
Codec ID                                 : V_MPEG4/ISO/AVC
Duration                                 : 1 h 27 min
Bit rate mode                            : Variable
Bit rate                                 : 3 000 kb/s
Maximum bit rate                         : 18.4 Mb/s
Width                                    : 1 280 pixels
Height                                   : 536 pixels
Display aspect ratio                     : 2.40:1
Frame rate mode                          : Constant
Frame rate                               : 30.000 FPS
Standard                                 : Component
Color space                              : YUV
Chroma subsampling                       : 4:2:0
Bit depth                                : 8 bits
Scan type                                : Progressive
Bits/(Pixel*Frame)                       : 0.146
Stream size                              : 1.81 GiB (91%)
Writing library                          : x264 core 155
Encoding settings                        : cabac=1
Default                                  : Yes
Forced                                   : No
Color range                              : Limited
Color primaries                          : BT.709
Transfer characteristics                 : BT.709
Matrix coefficients                      : BT.709

Audio
ID                                       : 2
Format                                   : AC-3
Format/Info                              : Audio Coding 3
Commercial name                          : Dolby Digital
Codec ID                                 : A_AC3
Duration                                 : 1 h 27 min
Bit rate mode                            : Constant
Bit rate                                 : 224 kb/s
Channel(s)                               : 2 channels
Channel layout                           : L R
Sampling rate                            : 48.0 kHz
Frame rate                               : 31.250 FPS (1536 SPF)
Compression mode                         : Lossy
Stream size                              : 140 MiB (7%)
Service kind                             : Complete Main
Default                                  : Yes
Forced                                   : No












Similar Torrents
Type Name Size Added S L
Video HandsOnHardcore - Mary Rock - Fucking The New Neig...
212.75 MB 2019-09-16 19:02:35 1559 313
Video Water drifting Ryo by woman suffer lovers reach...
236.66 MB 2019-05-08 10:45:54 1405 644
HD Video HD SHIC-117 remarriage opponent to take the child...
3.41 GB 2019-04-19 09:41:50 1133 915
Video Tall Nikkan OL of body to stick an obscene tiny su...
1.37 GB 2019-03-21 08:39:57 1013 3950
Video JUFE-136 at the end of homecoming NTR the three da...
1.26 GB 2020-01-10 22:49:11 941 1364
HD Video HD VRTM-433 mom machine just...hiding micro bikin...
3.90 GB 2019-06-19 12:06:00 937 845
Video SDMM-010 girllife is the new list of monitors for ...
2.67 GB 2019-03-31 05:46:36 876 1340
Video IT is-1873 bedtime in the gorgeous body of the new...
688.12 MB 2019-09-30 21:03:54 857 1366
Video ShesNew 20 01 26 Keira Croft The New Peach Bottom ...
230.05 MB 2020-01-26 09:03:54 821 309
Video of noise orthe area continue toturn up And sob as...
1.32 GB 2019-02-07 07:04:26 811 658




Trackers:
udp://tracker.coppersurfer.tk:6969/announce

The.New.Mutants.2020.720p.HDCAM-C1NEM4
Files
The.New.Mutants.2020.720p.HDCAM-C1NEM4.mkv (1.98 GB)
Torrent Downloaded From ProstyleX.org.txt (37.00 B)


Comments:

<< Previous      Next >>
1 - 1

 MekkkkkLoverSun Posted: 30-08-2020 at 17:02:17      



Ty

1 - 1
<< Previous      Next >>


Powered by TT | Page Generated In 1.290100 secs.
| RSS Feed | Feed Info