Warning! Use a VPN When Downloading Torrents!
Your IP Address is . Location
Your Internet Provider can see when you download torrents! Hide your IP Address with a VPN
ProStyleX warns: You must use ProStyleX VPN to hide your torrenting. It's FREE HIDE ME NOW
First Cams

Xvid/x264



Non-English

Music

Site Friends
      ETTV

      Torrentz2

      Free Courses Online

      OneHack




In the Shadow of the Moon (2019) 720p NF WEB-DL [Hindi + English] - x264 AAC 5.1 ESubs - 1GB - MOVCR


Download torrent:      
Info Hash:  8BB10E48870C9DE3151C017580E60A68D8BFF9B3
Category:  Movies > Dubs/Dual Audio
Torrent language:  Hindi  
Seeds | Leech:  41 | 3 Update seeds and leechers stat
Complete:   1,194
Health:   
Total Size:  1.02 GB
Added By:        kingmaker
Date Added:  10-08-2020 03:58:pm | Last Edit:  27-09-2020 08:35:pm

IMDB
In the Shadow of the Moon
In the Shadow of the Moon
Genre Crime, Mystery, Sci-Fi, Thriller

Director Jim Mickle

Writer Gregory Weidman, Geoffrey Tock

Actors Boyd Holbrook, Cleopatra Coleman, Bokeem Woodbine, Michael C. Hall

Plot A Philadelphia police officer struggles with a lifelong obsession to track down a mysterious serial killer whose crimes defy explanation.

Link http://www.imdb.com/title/tt8110640


Un système d'onglets en javascript
Description Trackers Files 1 Comments 0 Download Update Seeds & Leechers Stat
https://MovCr.st








In the Shadow of the Moon (2019) 720p NF WEB-DL [Hindi + English] - x264 AAC 5.1 - 1GB - MOVCR








IMDB Link : https://www.imdb.com/title/tt8110640/

Plot :

A Philadelphia police officer struggles with a lifelong obsession to track down a mysterious serial killer whose crimes defy explanation.




Video
ID                          : 1
Format                      : AVC
Format/Info                 : Advanced Video Codec
Format profile              : [email protected]
Format settings             : CABAC / 3 Ref Frames
Format settings, CABAC      : Yes
Format settings, Reference  : 3 frames
Codec ID                    : V_MPEG4/ISO/AVC
Duration                    : 1 h 55 min
Bit rate                    : 880 kb/s
Width                       : 1 280 pixels
Height                      : 720 pixels
Display aspect ratio        : 16:9
Frame rate mode             : Constant
Frame rate                  : 24.000 FPS
Color space                 : YUV
Chroma subsampling          : 4:2:0
Bit depth                   : 8 bits
Scan type                   : Progressive
Bits/(Pixel*Frame)          : 0.040
Stream size                 : 727 MiB (69%)
Title                       : www.MovCr.st
Default                     : Yes
Forced                      : No

Audio #1
ID                          : 2
Format                      : AAC LC SBR
Format/Info                 : Advanced Audio Codec Low Complexity with Spectral Band Replication
Commercial name             : HE-AAC
Format settings             : Explicit
Codec ID                    : A_AAC-2
Duration                    : 1 h 55 min
Bit rate                    : 192 kb/s
Channel(s)                  : 6 channels
Channel layout              : C L R Ls Rs LFE
Sampling rate               : 48.0 kHz
Frame rate                  : 23.438 FPS (2048 SPF)
Compression mode            : Lossy
Stream size                 : 159 MiB (15%)
Language                    : Hindi
Default                     : Yes
Forced                      : No

Audio #2
ID                          : 3
Format                      : AAC LC SBR
Format/Info                 : Advanced Audio Codec Low Complexity with Spectral Band Replication
Commercial name             : HE-AAC
Format settings             : Explicit
Codec ID                    : A_AAC-2
Duration                    : 1 h 55 min
Bit rate                    : 192 kb/s
Channel(s)                  : 6 channels
Channel layout              : C L R Ls Rs LFE
Sampling rate               : 48.0 kHz
Frame rate                  : 23.438 FPS (2048 SPF)
Compression mode            : Lossy
Stream size                 : 159 MiB (15%)
Language                    : English
Default                     : No
Forced                      : No

Text
ID                          : 4
Format                      : UTF-8
Codec ID                    : S_TEXT/UTF8
Codec ID/Info               : UTF-8 Plain Text
Duration                    : 1 h 49 min
Bit rate                    : 58 b/s
Count of elements           : 1705
Stream size                 : 46.7 KiB (0%)
Language                    : English
Default                     : Yes
Forced                      : No
















Similar Torrents
Type Name Size Added S L
Dubs/Dual Audio In The Shadow Of The Moon 2019 x264 720p Esub NetFLix Dual Audio Hindi English GOPI SAHI
903.85 MB 2020-08-22 05:31:37 41 2
Audio books The Devil in the Shape of a Woman:Witchcraft in Colonial New England - Carol F. Karlsen
252.24 MB 2020-08-09 12:28:10 34 0
HD What.We.Do.in.the.Shadows.S02E10.FiNAL.REAL.MULTi.720p.WEB.H264-CiELOS[eztv.io].mkv
531.35 MB 2020-08-01 12:01:10 122 18
HD What.We.Do.in.the.Shadows.S02E09.REAL.MULTi.720p.WEB.H264-CiELOS[eztv.io].mkv
482.94 MB 2020-08-01 12:00:47 13 1
HD What.We.Do.in.the.Shadows.S02E08.REAL.MULTi.720p.WEB.H264-CiELOS[eztv.io].mkv
567.94 MB 2020-08-01 12:00:26 24 6
HD What.We.Do.in.the.Shadows.S02E07.REAL.MULTi.720p.WEB.H264-CiELOS[eztv.io].mkv
567.77 MB 2020-08-01 12:00:07 119 34
HD What.We.Do.in.the.Shadows.S02E06.REAL.MULTi.720p.WEB.H264-CiELOS[eztv.io].mkv
596.51 MB 2020-08-01 11:59:44 19 3
HD What.We.Do.in.the.Shadows.S02E05.REAL.MULTi.720p.WEB.H264-CiELOS[eztv.io].mkv
538.01 MB 2020-08-01 11:59:27 17 8
Audio books In the Shadow of the Sword: The Birth of Islam and the Rise of the Global Arab Empire - Tom Holland
534.23 MB 2020-07-30 17:38:54 40 0
HD What.We.Do.in.the.Shadows.S02E04.MULTi.720p.WEB.H264-CiELOS[ettv]
561.28 MB 2020-06-28 23:16:32 2 6




Trackers:
udp://tracker.opentrackr.org:1337/announce

This Torrent also has backup trackers
URLSeedersLeechersCompleted
http://tracker.nyap2p.com:8080/announce190659
https://trakx.herokuapp.com:443/announce30559
http://tracker.ipv6tracker.ru:80/announce10773
http://tracker.anonwebz.xyz:8080/announce301,188

In the Shadow of the Moon (2019) 720p NF WEB-DL [Hindi + English] - x264 AAC 5.1 ESubs - 1GB - MOVCR
Files
www.MovCr.st - In the Shadow of the Moon (2019) 720p NF WEB-DL [Hindi + English] - x264 AAC 5.1 - 1GB - MOVCR.mkv (1.02 GB)


Comments:
No comments still posted

Powered by TT | Page Generated In 3.417897 secs.
| RSS Feed | Feed Info