Warning! Use a VPN When Downloading Torrents!
Your IP Address is . Location
Your Internet Provider can see when you download torrents! Hide your IP Address with a VPN
ProStyleX warns: You must use ProStyleX VPN to hide your torrenting. It's FREE HIDE ME NOW
First Cams

Xvid/x264



Non-English

Music

Site Friends
      ETTV

      Torrentz2

      Free Courses Online

      OneHack




Straw.Dogs.1971.UNRATED.REMASTERED.BRRip.XviD.B4ND1T69


Download torrent:      
Info Hash:  6CC05D26FEFC63DCC0D2746CB5D49984825B2F78
Category:  Movies > Divx/Xvid
Torrent language:  English  
Seeds | Leech:  17 | 3 Update seeds and leechers stat
Complete:   843
Health:   
Total Size:  1.14 GB
Added By:        B4ND1T69 Site FriendLoverSupermanManSun
Date Added:  07-08-2020 03:41:pm | Last Edit:  14-09-2020 02:20:am

Un système d'onglets en javascript
Description Trackers Files 4 Comments 1 Download Update Seeds & Leechers Stat
Straw.Dogs.1971.UNRATED.REMASTERED.BRRip.XviD.B4ND1T69



Director: Sam Peckinpah
Writers: David Zelag Goodman (screenplay), Sam Peckinpah (screenplay)
Stars: Dustin Hoffman, Susan George, Peter Vaughan

Plot/Story:
Upon moving to Britain to get away from American violence, astrophysicist David Sumner and his wife Amy are bullied and taken advantage of by the locals hired to do construction. When David finally takes a stand it escalates quickly into a bloody battle as the locals assault his house.

General
Complete name               : Straw.Dogs.1971.UNRATED.REMASTERED.BRRip.XviD.B4ND1T69.avi
Format                      : AVI
Format/Info                 : Audio Video Interleave
File size                   : 1.14 GiB
Duration                    : 1 h 57 min
Overall bit rate            : 1 389 kb/s
Subtitles                   : Yes...Included(HI)

Video
ID                          : 0
Format                      : MPEG-4 Visual
Format profile              : Advanced [email protected]
Format settings, BVOP       : 2
Format settings, QPel       : No
Format settings, GMC        : No warppoints
Format settings, Matrix     : Default (H.263)
Codec ID                    : XVID
Codec ID/Hint               : XviD
Duration                    : 1 h 57 min
Bit rate                    : 1 248 kb/s
Width                       : 720 pixels
Height                      : 384 pixels
Display aspect ratio        : 1.85:1
Frame rate                  : 23.976 (24000/1001) FPS
Color space                 : YUV
Chroma subsampling          : 4:2:0
Bit depth                   : 8 bits
Scan type                   : Progressive
Compression mode            : Lossy
Bits/(Pixel*Frame)          : 0.188
Stream size                 : 1.03 GiB (90%)
Writing library             : XviD 64

Audio
ID                          : 1
Format                      : MPEG Audio
Format version              : Version 1
Format profile              : Layer 3
Codec ID                    : 55
Codec ID/Hint               : MP3
Duration                    : 1 h 57 min
Bit rate mode               : Constant
Bit rate                    : 128 kb/s
Channel(s)                  : 2 channels
Sampling rate               : 48.0 kHz
Compression mode            : Lossy
Stream size                 : 108 MiB (9%)
Alignment                   : Aligned on interleaves
Interleave, duration        : 24  ms (0.58 video frame)

Screenshots:










Please Seed For As Long As Possible
Or At Least 1:1 Ratio...Thanks
Enjoy Peeps





Trackers:
udp://tracker.coppersurfer.tk:6969/announce

Straw.Dogs.1971.UNRATED.REMASTERED.BRRip.XviD.B4ND1T69
Files
1337x text file.txt (61.00 B)
Downloaded from katcr.co.txt (139.00 B)
Straw.Dogs.1971.UNRATED.REMASTERED.BRRip.XviD.B4ND1T69.avi (1.14 GB)
Straw.Dogs.1971.UNRATED.REMASTERED.BRRip.XviD.B4ND1T69.srt (90.86 kB)


Comments:

<< Previous      Next >>
1 - 1

 MekkkkkLoverSun Posted: 07-08-2020 at 20:57:21      



Ty

1 - 1
<< Previous      Next >>


Powered by TT | Page Generated In 2.539612 secs.
| RSS Feed | Feed Info