Warning! Use a VPN When Downloading Torrents!
Your IP Address is . Location
Your Internet Provider can see when you download torrents! Hide your IP Address with a VPN
ProStyleX warns: You must use ProStyleX VPN to hide your torrenting. It's FREE HIDE ME NOW
First Cams

Xvid/x264



Non-English

Music

Site Friends
      ETTV

      Torrentz2

      Free Courses Online

      OneHack




Jagga Jagravan Joga (2020) Punjabi 720p AMZN WEBRip x264 AAC ESubs - 1GB - MOVCR


Download torrent:      
Info Hash:  0B2A5B71921BBBB982C3D8BA1F0A88208C86044A
Category:  Movies > Non-English
Torrent language:  Punjabi  
Seeds | Leech:  8 | 0 Update seeds and leechers stat
Complete:   551
Health:   
Total Size:  1.01 GB
Added By:        kingmaker
Date Added:  07-08-2020 11:37:am | Last Edit:  19-09-2020 02:34:am

IMDB
Jagga Jagravan Joga
Jagga Jagravan Joga
Genre Drama

Director Sherry Uppal

Writer N/A

Actors Kulbir Jhinjer, Sherry Uppal

Plot Karaj and his wife. Her parents have passed away and he does farming on their land. However, her uncle is convinced that he should own the land instead and files a case against Karaj.

Link http://www.imdb.com/title/tt11779668


Un système d'onglets en javascript
Description Trackers Files 1 Comments 0 Download Update Seeds & Leechers Stat
https://MovCr.st















IMDB Link : https://www.imdb.com/title/tt11779668/




Video
ID                          : 1
Format                      : AVC
Format/Info                 : Advanced Video Codec
Format profile              : [email protected]
Format settings             : CABAC / 4 Ref Frames
Format settings, CABAC      : Yes
Format settings, Reference  : 4 frames
Codec ID                    : V_MPEG4/ISO/AVC
Duration                    : 1 h 54 min
Bit rate                    : 1 100 kb/s
Width                       : 1 280 pixels
Height                      : 532 pixels
Display aspect ratio        : 2.40:1
Frame rate mode             : Constant
Frame rate                  : 24.000 FPS
Color space                 : YUV
Chroma subsampling          : 4:2:0
Bit depth                   : 8 bits
Scan type                   : Progressive
Bits/(Pixel*Frame)          : 0.067
Stream size                 : 903 MiB (87%)
Title                       : www.MovCR.st
Writing library             : x264 core 157 r2935 545de2f
Default                     : Yes
Forced                      : No
Color range                 : Limited
Color primaries             : BT.709
Transfer characteristics    : BT.709
Matrix coefficients         : BT.709

Audio
ID                          : 2
Format                      : AAC LC
Format/Info                 : Advanced Audio Codec Low Complexity
Codec ID                    : A_AAC-2
Duration                    : 1 h 54 min
Bit rate                    : 160 kb/s
Channel(s)                  : 2 channels
Channel layout              : L R
Sampling rate               : 48.0 kHz
Frame rate                  : 46.875 FPS (1024 SPF)
Compression mode            : Lossy
Delay relative to video     : -21 ms
Stream size                 : 131 MiB (13%)
Language                    : Panjabi
Default                     : Yes
Forced                      : No

Text
ID                          : 3
Format                      : UTF-8
Codec ID                    : S_TEXT/UTF8
Codec ID/Info               : UTF-8 Plain Text
Duration                    : 1 h 53 min
Bit rate                    : 67 b/s
Count of elements           : 1655
Stream size                 : 55.6 KiB (0%)
Language                    : English
Default                     : Yes
Forced                      : No

















Similar Torrents
Type Name Size Added S L
h.264/x264 Jagga Jagravan Joga 2020.1080p.AMZN.WEB.DL.DD.2.0....
2.28 GB 2020-07-04 14:31:35 5 0




Trackers:
udp://tracker.opentrackr.org:1337/announce

This Torrent also has backup trackers
URLSeedersLeechersCompleted
http://tracker.nyap2p.com:8080/announce170247
https://trakx.herokuapp.com:443/announce10281
http://tracker.ipv6tracker.ru:80/announce00379
http://tracker.anonwebz.xyz:8080/announce10578

Jagga Jagravan Joga (2020) Punjabi 720p AMZN WEBRip x264 AAC ESubs - 1GB - MOVCR
Files
www.MovCr.st - Jagga Jagravan Joga (2020) Punjabi 720p AMZN WEBRip x264 AAC ESubs - 1GB - MOVCR.mkv (1.01 GB)


Comments:
No comments still posted

Powered by TT | Page Generated In 0.842850 secs.
| RSS Feed | Feed Info