Warning! Use a VPN When Downloading Torrents!
Your IP Address is . Location
Your Internet Provider can see when you download torrents! Hide your IP Address with a VPN
ProStyleX warns: You must use ProStyleX VPN to hide your torrenting. It's FREE HIDE ME NOW
First Cams

Xvid/x264



Non-English

Music

Site Friends
      ETTV

      Torrentz2

      Free Courses Online

      OneHack




Masuta (2020) Marathi 720p MX HDRip x264 AAC - 1.1GB - MOVCR


Download torrent:      
Info Hash:  9777AED25C0D727D7A22F3FF99BD0C8BA3649EA0
Category:  Movies > Non-English
Torrent language:  Marathi  
Seeds | Leech:  18 | 0 Update seeds and leechers stat
Complete:   309
Health:   
Total Size:  1.12 GB
Added By:        kingmaker
Date Added:  07-08-2020 11:12:am | Last Edit:  16-09-2020 11:34:am

Un système d'onglets en javascript
Description Trackers Files 1 Comments 1 Download Update Seeds & Leechers Stat
https://MovCr.st

















Plot :

A family working at the crematorium suffers ill-treatment and hardships at the hands of the villagers, owing to their profession.




Video
ID                          : 1
Format                      : AVC
Format/Info                 : Advanced Video Codec
Format profile              : [email protected]
Format settings             : CABAC / 4 Ref Frames
Format settings, CABAC      : Yes
Format settings, Reference  : 4 frames
Codec ID                    : V_MPEG4/ISO/AVC
Duration                    : 2 h 12 min
Bit rate                    : 1 050 kb/s
Width                       : 1 280 pixels
Height                      : 546 pixels
Display aspect ratio        : 2.35:1
Original display aspect rat : 2.35:1
Frame rate mode             : Constant
Frame rate                  : 24.000 FPS
Color space                 : YUV
Chroma subsampling          : 4:2:0
Bit depth                   : 8 bits
Scan type                   : Progressive
Bits/(Pixel*Frame)          : 0.063
Stream size                 : 995 MiB (87%)
Title                       : www.MovCr.st
Writing library             : x264 core 157 r2935 545de2f
Language                    : Marathi
Default                     : Yes
Forced                      : No
Color range                 : Limited
Color primaries             : BT.709
Transfer characteristics    : BT.709
Matrix coefficients         : BT.709

Audio
ID                          : 2
Format                      : AAC LC
Format/Info                 : Advanced Audio Codec Low Complexity
Codec ID                    : A_AAC-2
Duration                    : 2 h 12 min
Bit rate                    : 160 kb/s
Channel(s)                  : 2 channels
Channel layout              : L R
Sampling rate               : 48.0 kHz
Frame rate                  : 46.875 FPS (1024 SPF)
Compression mode            : Lossy
Delay relative to video     : -21 ms
Stream size                 : 152 MiB (13%)
Language                    : Marathi
Default                     : Yes
Forced                      : No



















Trackers:
udp://tracker.opentrackr.org:1337/announce

This Torrent also has backup trackers
URLSeedersLeechersCompleted
http://tracker.nyap2p.com:8080/announce70150
https://trakx.herokuapp.com:443/announce20144
http://tracker.ipv6tracker.ru:80/announce10205
http://tracker.anonwebz.xyz:8080/announce30306

Masuta (2020) Marathi 720p MX HDRip x264 AAC - 1.1GB - MOVCR
Files
www.MovCr.st - Masuta (2020) Marathi 720p MX HDRip x264 AAC - 1.1GB - MOVCR.mkv (1.12 GB)


Comments:

<< Previous      Next >>
1 - 1

 nanchyLoverSun Posted: 07-08-2020 at 12:24:55      



tx

1 - 1
<< Previous      Next >>


Powered by TT | Page Generated In 5.161908 secs.
| RSS Feed | Feed Info