Warning! Use a VPN When Downloading Torrents!
Your IP Address is . Location
Your Internet Provider can see when you download torrents! Hide your IP Address with a VPN
ProStyleX warns: You must use ProStyleX VPN to hide your torrenting. It's FREE HIDE ME NOW
First Cams

Xvid/x264



Non-English

Music

Site Friends
      ETTV

      Torrentz2

      Free Courses Online

      OneHack




Blue Lies (2020) Hindi 720p ULLU UNTOUCHED WEB-DL x264 AAC HC-ESubs 100MB - MOVCR ExClusive


Download torrent:      
Info Hash:  1AF680D5DC3C7DA6A2FDD064373E2C09963B41D1
Category:  Movies > Non-English
Torrent language:  Hindi  
Seeds | Leech:  21 | 0 Update seeds and leechers stat
Complete:   903
Health:   
Total Size:  91.65 MB
Added By:        kingmaker
Date Added:  06-08-2020 08:43:pm | Last Edit:  19-09-2020 02:58:pm

Un système d'onglets en javascript
Description Trackers Files 1 Comments 0 Download Update Seeds & Leechers Stat
https://MovCr.st















Plot :

A young man who works as a meter-reader in electricity department, lands up in an uncanny house on the first day of his job. Notices an old man on a wheelchair who requests him to stay for a while and accompany him. Pronto he realises, someone is murdered in the same house.. but who? Watch “Blue Lies” and unleash the mystery.





Video
ID                          : 1
Format                      : AVC
Format/Info                 : Advanced Video Codec
Format profile              : [email protected]
Format settings             : 1 Ref Frames
Format settings, CABAC      : No
Format settings, Reference  : 1 frame
Codec ID                    : V_MPEG4/ISO/AVC
Duration                    : 14 min 47 s
Bit rate                    : 737 kb/s
Width                       : 1 280 pixels
Height                      : 720 pixels
Display aspect ratio        : 16:9
Frame rate mode             : Constant
Frame rate                  : 24.000 FPS
Color space                 : YUV
Chroma subsampling          : 4:2:0
Bit depth                   : 8 bits
Scan type                   : Progressive
Bits/(Pixel*Frame)          : 0.033
Stream size                 : 78.0 MiB (85%)
Title                       : www.MovCR.st
Writing library             : x264 core 155 r2901 7d0ff22
Language                    : Hindi
Default                     : Yes
Forced                      : No

Audio
ID                          : 2
Format                      : AAC LC
Format/Info                 : Advanced Audio Codec Low Complexity
Codec ID                    : A_AAC-2
Duration                    : 14 min 47 s
Bit rate                    : 127 kb/s
Channel(s)                  : 2 channels
Channel layout              : L R
Sampling rate               : 48.0 kHz
Frame rate                  : 46.875 FPS (1024 SPF)
Compression mode            : Lossy
Stream size                 : 13.4 MiB (15%)
Language                    : Hindi
Default                     : Yes
Forced                      : No


















Trackers:
udp://tracker.opentrackr.org:1337/announce

This Torrent also has backup trackers
URLSeedersLeechersCompleted
http://tracker.nyap2p.com:8080/announce240469
https://trakx.herokuapp.com:443/announce00455
http://tracker.ipv6tracker.ru:80/announce00648
http://tracker.anonwebz.xyz:8080/announce00522

Blue Lies (2020) Hindi 720p ULLU UNTOUCHED WEB-DL x264 AAC HC-ESubs 100MB - MOVCR ExClusive
Files
www.MovCR.st - Blue Lies (2020) Hindi 720p ULLU UNTOUCHED WEB-DL x264 AAC HC-ESubs 100MB - MOVCR ExClusive.mkv (91.65 MB)


Comments:
No comments still posted

Powered by TT | Page Generated In 2.524063 secs.
| RSS Feed | Feed Info