Warning! Use a VPN When Downloading Torrents!
Your IP Address is . Location
Your Internet Provider can see when you download torrents! Hide your IP Address with a VPN
ProStyleX warns: You must use ProStyleX VPN to hide your torrenting. It's FREE HIDE ME NOW
First Cams

Xvid/x264



Non-English

Music

Site Friends
      ETTV

      Torrentz2

      Free Courses Online

      OneHack




Fatteshikast (2019) Marathi 1080p Zee5 WEB-DL x264 AAC ESubs 2GB - MOVCR


Download torrent:      
Info Hash:  74BD0FD0E84AF3CF4833EDA1CFA2CF0DF4390D31
Category:  Movies > Non-English
Torrent language:  Marathi  
Seeds | Leech:  6 | 0 Update seeds and leechers stat
Complete:   194
Health:   
Total Size:  2.06 GB
Added By:        kingmaker
Date Added:  06-08-2020 08:26:pm | Last Edit:  28-09-2020 10:33:am

IMDB
Fatteshikast
Fatteshikast
Genre Action

Director Digpal Lanjekar

Writer Digpal Lanjekar

Actors Mrinmayee Deshpande, Sameer Dharmadhikari, Mrinal Kulkarni, Chinmay Mandlekar

Plot Fatteshikast is a Marathi movie starring Chinmay Mandlekar, Mrinal Kulkarni, Annup Sonii, Ankit Mohan, Mrunmayee Deshpande, Nikhil Raut and Sameer Dharmadhikari in prominent roles. It is a drama directed by Digpal Lanjekar.

Link http://www.imdb.com/title/tt10767976


Un système d'onglets en javascript
Description Trackers Files 1 Comments 0 Download Update Seeds & Leechers Stat
https://MovCr.st















IMDB Link : https://www.imdb.com/title/tt10767976/

Plot :

Fatteshikast is a Marathi movie starring Chinmay Mandlekar, Mrinal Kulkarni, Annup Sonii, Ankit Mohan, Mrunmayee Deshpande, Nikhil Raut and Sameer Dharmadhikari in prominent roles. It is a drama directed by Digpal Lanjekar.




Video
ID                          : 1
Format                      : AVC
Format/Info                 : Advanced Video Codec
Format profile              : [email protected]
Format settings             : CABAC / 4 Ref Frames
Format settings, CABAC      : Yes
Format settings, Reference  : 4 frames
Codec ID                    : V_MPEG4/ISO/AVC
Duration                    : 2 h 23 min
Bit rate mode               : Variable
Bit rate                    : 1 862 kb/s
Maximum bit rate            : 2 700 kb/s
Width                       : 1 920 pixels
Height                      : 1 080 pixels
Display aspect ratio        : 16:9
Frame rate mode             : Constant
Frame rate                  : 25.000 FPS
Color space                 : YUV
Chroma subsampling          : 4:2:0
Bit depth                   : 8 bits
Scan type                   : Progressive
Bits/(Pixel*Frame)          : 0.036
Stream size                 : 1.87 GiB (91%)
Title                       : www.MovCR.st
Default                     : Yes
Forced                      : No
Color range                 : Limited
Color primaries             : BT.709
Transfer characteristics    : BT.709
Matrix coefficients         : BT.709

Audio
ID                          : 2
Format                      : AAC LC SBR
Format/Info                 : Advanced Audio Codec Low Complexity with Spectral Band Replication
Commercial name             : HE-AAC
Format settings             : Explicit
Codec ID                    : A_AAC-2
Duration                    : 2 h 23 min
Bit rate                    : 192 kb/s
Channel(s)                  : 2 channels
Channel layout              : L R
Sampling rate               : 96.0 kHz
Frame rate                  : 46.875 FPS (2048 SPF)
Compression mode            : Lossy
Stream size                 : 197 MiB (9%)
Language                    : Marathi
Default                     : Yes
Forced                      : No

Text
ID                          : 3
Format                      : UTF-8
Codec ID                    : S_TEXT/UTF8
Codec ID/Info               : UTF-8 Plain Text
Duration                    : 2 h 21 min
Bit rate                    : 43 b/s
Count of elements           : 1412
Stream size                 : 45.6 KiB (0%)
Language                    : English
Default                     : No
Forced                      : No
















Similar Torrents
Type Name Size Added S L
Non-English Fatteshikast 2019 WebRip 720p Marathi AAC x264 ESub - mkvCinemas [Telly].mkv
1.25 GB 2020-08-07 03:39:10 112 12




Trackers:
udp://tracker.opentrackr.org:1337/announce

This Torrent also has backup trackers
URLSeedersLeechersCompleted
http://tracker.nyap2p.com:8080/announce150133
https://trakx.herokuapp.com:443/announce00107
http://tracker.ipv6tracker.ru:80/announce00135
http://tracker.anonwebz.xyz:8080/announce00193

Fatteshikast (2019) Marathi 1080p Zee5 WEB-DL x264 AAC ESubs 2GB - MOVCR
Files
www.MovCR.st - Fatteshikast (2019) Marathi 1080p Zee5 WEB-DL x264 AAC ESubs 2GB - MOVCR.mkv (2.06 GB)


Comments:
No comments still posted

Powered by TT | Page Generated In 0.818499 secs.
| RSS Feed | Feed Info