Warning! Use a VPN When Downloading Torrents!
Your IP Address is . Location
Your Internet Provider can see when you download torrents! Hide your IP Address with a VPN
ProStyleX warns: You must use ProStyleX VPN to hide your torrenting. It's FREE HIDE ME NOW
First Cams

Xvid/x264



Non-English

Music

Site Friends
      ETTV

      Torrentz2

      Free Courses Online

      OneHack




Meghmallar (2015) Bengali 720p HoiChoi WEB-DL x264 AAC HC-ESubs 650MB - MOVCR


Download torrent:      
Info Hash:  347F3BE8388BFAA37DD580AB3C93EA218BC3EFC8
Category:  Movies > Non-English
Torrent language:  Bengali  
Seeds | Leech:  0 | 7 Update seeds and leechers stat
Complete:   228
Health:   
Total Size:  621.16 MB
Added By:        kingmaker
Date Added:  06-08-2020 08:21:pm | Last Edit:  25-09-2020 07:54:pm

Un système d'onglets en javascript
Description Trackers Files 1 Comments 0 Download Update Seeds & Leechers Stat
[b]https://MovCr.st









Meghmallar (2015) Bengali 720p HoiChoi WEB-DL x264 AAC HC-ESubs 650MB - MOVCR







IMDB Link : [url=imdb.com/title/tt4971786/]imdb.com/title/tt4971786/[/url]

Plot :

A touching story of a simple man caught up in the terror of 1971 Bangladesh.




Video
ID                          : 1
Format                      : AVC
Format/Info                 : Advanced Video Codec
Format profile              : [email protected]
Format settings             : CABAC / 3 Ref Frames
Format settings, CABAC      : Yes
Format settings, Reference  : 3 frames
Codec ID                    : V_MPEG4/ISO/AVC
Duration                    : 1 h 32 min
Bit rate mode               : Variable
Bit rate                    : 812 kb/s
Maximum bit rate            : 1 400 kb/s
Width                       : 1 280 pixels
Height                      : 720 pixels
Display aspect ratio        : 16:9
Frame rate mode             : Constant
Frame rate                  : 24.000 FPS
Color space                 : YUV
Chroma subsampling          : 4:2:0
Bit depth                   : 8 bits
Scan type                   : Progressive
Bits/(Pixel*Frame)          : 0.037
Stream size                 : 537 MiB (86%)
Title                       : www.MovCR.st
Language                    : Bengali
Default                     : Yes
Forced                      : No

Audio
ID                          : 2
Format                      : AAC LC
Format/Info                 : Advanced Audio Codec Low Complexity
Codec ID                    : A_AAC-2
Duration                    : 1 h 32 min
Bit rate                    : 125 kb/s
Channel(s)                  : 2 channels
Channel layout              : L R
Sampling rate               : 48.0 kHz
Frame rate                  : 46.875 FPS (1024 SPF)
Compression mode            : Lossy
Delay relative to video     : -33 ms
Stream size                 : 82.9 MiB (13%)
Language                    : Bengali
Default                     : Yes
Forced                      : No










[/b]





Trackers:
udp://tracker.opentrackr.org:1337/announce

This Torrent also has backup trackers
URLSeedersLeechersCompleted
http://tracker.nyap2p.com:8080/announce00121
https://trakx.herokuapp.com:443/announce00103
http://tracker.ipv6tracker.ru:80/announce00152
http://tracker.anonwebz.xyz:8080/announce00224

Meghmallar (2015) Bengali 720p HoiChoi WEB-DL x264 AAC HC-ESubs 650MB - MOVCR
Files
www.MovCR.st - Meghmallar (2015) Bengali 720p HoiChoi WEB-DL x264 AAC HC-ESubs 650MB - MOVCR.mkv (621.16 MB)


Comments:
No comments still posted

Powered by TT | Page Generated In 3.386970 secs.
| RSS Feed | Feed Info