Warning! Use a VPN When Downloading Torrents!
Your IP Address is . Location
Your Internet Provider can see when you download torrents! Hide your IP Address with a VPN
ProStyleX warns: You must use ProStyleX VPN to hide your torrenting. It's FREE HIDE ME NOW
Xvid/x264



Non-English

Site Friends
      ETTV

      Torrentz2

      Free Courses Online

      OneHack




Rollerball.1975.REMASTERED.BRRip.XviD.B4ND1T69


Download torrent:      
Info Hash:  8B854D77B6C641370920116B95365787DD2F9854
Category:  Movies > Divx/Xvid
Torrent language:  English  
Seeds | Leech:  90 | 32 Update seeds and leechers stat
Complete:   341
Health:   
Total Size:  1.43 GB
Added By:        B4ND1T69 Site FriendSupermanMan
Date Added:  01-08-2020 03:11:pm | Last Edit:  02-08-2020 03:49:am

IMDB
Rollerball
Rollerball
Genre Action, Sci-Fi, Sport

Director Norman Jewison

Writer William Harrison (screenplay)

Actors James Caan, John Houseman, Maud Adams, John Beck

Plot In a futuristic society where corporations have replaced countries, the violent game of Rollerball is used to control the populace by demonstrating the futility of individuality. However, one player, Jonathan E., rises to the top, fights for his personal freedom, and threatens the corporate control.

Link http://www.imdb.com/title/tt0073631


Un système d'onglets en javascript
Description Trackers Files 4 Comments 0 Download Update Seeds & Leechers Stat
Rollerball.1975.REMASTERED.BRRip.XviD.B4ND1T69



Director: Norman Jewison
Writer: William Harrison (screenplay)
Stars: James Caan, John Houseman, Maud Adams

Plot/Story:
In a corporate-controlled future, an ultra-violent sport known as Rollerball represents the world, and one of its powerful athletes is out to defy those who want him out of the game.

General
Complete name               : Rollerball.1975.REMASTERED.BRRip.XviD.B4ND1T69.avi
Format                      : AVI
Format/Info                 : Audio Video Interleave
File size                   : 1.43 GiB
Duration                    : 2 h 5 min
Overall bit rate            : 1 629 kb/s
Subtitles                   : Yes...Included

Video
ID                          : 0
Format                      : MPEG-4 Visual
Format profile              : Advanced [email protected]
Format settings, BVOP       : 2
Format settings, QPel       : No
Format settings, GMC        : No warppoints
Format settings, Matrix     : Default (H.263)
Codec ID                    : XVID
Codec ID/Hint               : XviD
Duration                    : 2 h 5 min
Bit rate                    : 1 489 kb/s
Width                       : 720 pixels
Height                      : 400 pixels
Display aspect ratio        : 16:9
Frame rate                  : 23.976 (24000/1001) FPS
Color space                 : YUV
Chroma subsampling          : 4:2:0
Bit depth                   : 8 bits
Scan type                   : Progressive
Compression mode            : Lossy
Bits/(Pixel*Frame)          : 0.216
Stream size                 : 1.31 GiB (91%)
Writing library             : XviD 64

Audio
ID                          : 1
Format                      : MPEG Audio
Format version              : Version 1
Format profile              : Layer 3
Codec ID                    : 55
Codec ID/Hint               : MP3
Duration                    : 2 h 4 min
Bit rate mode               : Constant
Bit rate                    : 128 kb/s
Channel(s)                  : 2 channels
Sampling rate               : 48.0 kHz
Compression mode            : Lossy
Stream size                 : 114 MiB (8%)
Alignment                   : Aligned on interleaves
Interleave, duration        : 24  ms (0.58 video frame)

Screenshots:










Please Seed For As Long As Possible
Or At Least 1:1 Ratio...Thanks
Enjoy Peeps


Similar Torrents
Type Name Size Added S L
HD Rollerball (1975) ITA Ac3 2.0-ENG Ac3 5.1 BDRip 10...
3.61 GB 2020-03-28 06:52:11 10 0
Other WOR 2020-08-02: Death of Rollerball Rocco, WWE fin...
35.84 MB 2020-08-02 11:02:26 6 57




Trackers:
udp://tracker.coppersurfer.tk:6969/announce

Rollerball.1975.REMASTERED.BRRip.XviD.B4ND1T69
Files
1337x text file.txt (61.00 B)
Downloaded from katcr.co.txt (139.00 B)
Rollerball.1975.REMASTERED.BRRip.XviD.B4ND1T69.avi (1.43 GB)
Rollerball.1975.REMASTERED.BRRip.XviD.B4ND1T69.srt (72.54 kB)


Comments:
No comments still posted

Powered by TT | Page Generated In 7.681338 secs.
| RSS Feed | Feed Info