Warning! Use a VPN When Downloading Torrents!
Your IP Address is . Location
Your Internet Provider can see when you download torrents! Hide your IP Address with a VPN
ProStyleX warns: You must use ProStyleX VPN to hide your torrenting. It's FREE HIDE ME NOW
Xvid/x264



Non-English

Site Friends
      ETTV

      Torrentz2

      Free Courses Online

      OneHack




Raat Akeli Hai (2020) Hindi (1080p WEBRip x265 HEVC 10bit DD 5.1 MSubs) - [Musafirboy]


Download torrent:      
Info Hash:  BC6B7055AC47B3783EF33C0D4407B793A0E04325
Category:  Movies > HEVC/x265
Torrent language:  Hindi  
Seeds | Leech:  1,877 | 885 Update seeds and leechers stat
Complete:   13,531
Health:   
Total Size:  2.77 GB
Added By:        Musafirboy
Date Added:  31-07-2020 10:23:pm | Last Edit:  04-08-2020 08:13:am

IMDB
Raat Akeli Hai
Raat Akeli Hai
Genre Crime, Drama, Thriller

Director Honey Trehan

Writer Smita Singh (dialogue), Smita Singh (screenplay), Smita Singh (story)

Actors Nawazuddin Siddiqui, Radhika Apte, Shweta Tripathi, Tigmanshu Dhulia

Plot The film follows a small town cop who is summoned to investigate the death of a politician which gets complicated by the victim's secretive family and his own conflicted heart.

Link http://www.imdb.com/title/tt12567088


Un système d'onglets en javascript
Description Trackers Files 2 Comments 0 Download Update Seeds & Leechers Stat










Raat Akeli Hai (2020) Hindi
1080p NF WEBRip x265 HEVC 10bit DD 5.1 MSubs - [Musafirboy]



















:: Source ::
Raat.Akeli.Hai.2020.1080p.NF.WEB-DL.DDP5.1.Atmos.x264-Telly [4.9 GB]










Media Information

General
Complete name : Raat Akeli Hai (2020) Hindi (1080p WEBRip x265 10bit) - [Musafirboy].mkv
Format : Matroska
Format version : Version 4
File size : 2.77 GiB
Duration : 2 h 29 min
Overall bit rate : 2 649 kb/s
Encoded date : UTC 2020-07-31 20:56:21

Video
ID : 1
Format : HEVC
Format/Info : High Efficiency Video Coding
Format profile : Main [email protected]@Main
Codec ID : V_MPEGH/ISO/HEVC
Duration : 2 h 29 min
Bit rate : 2 201 kb/s
Width : 1 920 pixels
Height : 816 pixels
Display aspect ratio : 2.35:1
Frame rate mode : Constant
Frame rate : 24.000 FPS
Color space : YUV
Chroma subsampling : 4:2:0
Bit depth : 10 bits
Bits/(Pixel*Frame) : 0.059
Stream size : 2.30 GiB (83%)
Writing library : x265 3.2+31-6b348d5b56d8:[Windows][GCC 9.2.0][64 bit] 10bit
Encoding settings : cpuid=1111039 / frame-threads=4 / numa-pools=16 / wpp / no-pmode / no-pme / no-psnr / no-ssim / log-level=2 / input-csp=1 / input-res=1920x816 / interlace=0 / total-frames=215390 / level-idc=50 / high-tier=1 / uhd-bd=0 / ref=3 / no-allow-non-conformance / no-repeat-headers / annexb / no-aud / no-hrd / info / hash=0 / no-temporal-layers / open-gop / min-keyint=24 / keyint=250 / gop-lookahead=0 / bframes=8 / b-adapt=2 / b-pyramid / bframe-bias=40 / rc-lookahead=80 / lookahead-slices=5 / scenecut=40 / hist-scenecut=0 / radl=0 / no-splice / no-intra-refresh / ctu=64 / min-cu-size=8 / no-rect / no-amp / max-tu-size=32 / tu-inter-depth=1 / tu-intra-depth=1 / limit-tu=0 / rdoq-level=0 / dynamic-rd=0.00 / no-ssim-rd / signhide / no-tskip / nr-intra=0 / nr-inter=0 / no-constrained-intra / strong-intra-smoothing / max-merge=3 / limit-refs=1 / no-limit-modes / me=1 / subme=2 / merange=57 / temporal-mvp / no-frame-dup / no-hme / weightp / no-weightb / no-analyze-src-pics / deblock=0:0 / sao / no-sao-non-deblock / rd=3 / selective-sao=4 / early-skip / rskip / no-fast-intra / no-tskip-fast / no-cu-lossless / b-intra / no-splitrd-skip / rdpenalty=0 / psy-rd=2.00 / psy-rdoq=0.00 / no-rd-refine / no-lossless / cbqpoffs=0 / crqpoffs=0 / rc=abr / bitrate=2200 / qcomp=0.60 / qpstep=4 / stats-write=0 / stats-read=2 / cplxblur=20.0 / qblur=0.5 / ipratio=1.40 / pbratio=1.30 / aq-mode=3 / aq-strength=0.30 / cutree / zone-count=0 / no-strict-cbr / qg-size=32 / no-rc-grain / qpmax=69 / qpmin=0 / no-const-vbv / sar=0 / overscan=0 / videoformat=5 / range=0 / colorprim=1 / transfer=1 / colormatrix=1 / chromaloc=0 / display-window=0 / cll=0,0 / min-luma=0 / max-luma=1023 / log2-max-poc-lsb=8 / vui-timing-info / vui-hrd-info / slices=1 / no-opt-qp-pps / no-opt-ref-list-length-pps / no-multi-pass-opt-rps / scenecut-bias=0.05 / hist-threshold=0.01 / no-opt-cu-delta-qp / no-aq-motion / no-hdr10 / no-hdr10-opt / no-dhdr10-opt / no-idr-recovery-sei / analysis-reuse-level=5 / scale-factor=0 / refine-intra=0 / refine-inter=0 / refine-mv=1 / refine-ctu-distortion=0 / no-limit-sao / ctu-info=0 / no-lowpass-dct / refine-analysis-type=0 / copy-pic=1 / max-ausize-factor=1.0 / no-dynamic-refine / no-single-sei / no-hevc-aq / no-svt / no-field / qp-adaptation-range=1.00 / no-scenecut-aware-qp
Default : Yes
Forced : No
Color range : Limited
Color primaries : BT.709
Transfer characteristics : BT.709
Matrix coefficients : BT.709

Audio
ID : 2
Format : AC-3
Format/Info : Audio Coding 3
Commercial name : Dolby Digital
Codec ID : A_AC3
Duration : 2 h 29 min
Bit rate mode : Constant
Bit rate : 448 kb/s
Channel(s) : 6 channels
Channel layout : L R C LFE Ls Rs
Sampling rate : 48.0 kHz
Frame rate : 31.250 FPS (1536 SPF)
Compression mode : Lossy
Stream size : 480 MiB (17%)
Title : Hindi
Language : Hindi
Service kind : Complete Main
Default : Yes
Forced : No

Subtitle #1 : UTF-8 / English
Subtitle #2 : UTF-8 / Hindi
Subtitle #3 : UTF-8 / Arabic
Subtitle #4 : UTF-8 / Italian
Subtitle #5 : UTF-8 / Korean
Subtitle #6 : UTF-8 / Russian
Subtitle #7 : UTF-8 / Spanish
Subtitle #8 : UTF-8 / Thai


















Similar Torrents
Type Name Size Added S L
Non-English Raat Akeli Hai (2020) Hindi 720p NF WEB-DL ⭐1.1 ...
1.10 GB 2020-07-31 07:37:04 3352 423
Non-English Raat Akeli Hai (2020) 720p NF WEB-DL DD5.1 [Hindi ...
1.33 GB 2020-07-31 09:05:02 328 161
Non-English Raat Akeli Hai (2020) 1080p NF WEB-DL x264 AAC 5.1...
1.74 GB 2020-07-31 09:01:24 187 44
HD Raat.Akeli.Hai.2020.Hindi.720p.NF.WEB-DL.AAC.5.1.x...
1.31 GB 2020-08-01 11:25:24 132 168




Trackers:
udp://tracker.coppersurfer.tk:6969/announce

Raat Akeli Hai (2020) Hindi (1080p WEBRip x265 HEVC 10bit DD 5.1 MSubs) - [Musafirboy]
Files
Encoded by Musafirboy.txt (397.00 B)
Raat Akeli Hai (2020) Hindi (1080p WEBRip x265 10bit) - [Musafirboy].mkv (2.77 GB)


Comments:
No comments still posted

Powered by TT | Page Generated In 0.767522 secs.
| RSS Feed | Feed Info