Warning! Use a VPN When Downloading Torrents!
Your IP Address is . Location
Your Internet Provider can see when you download torrents! Hide your IP Address with a VPN
ProStyleX warns: You must use ProStyleX VPN to hide your torrenting. It's FREE HIDE ME NOW
Xvid/x264



Non-English

Site Friends
      ETTV

      Torrentz2

      Free Courses Online

      OneHack




Unthinkable.2010.EXTENDED.CUT.BRRip.XviD.B4ND1T69


Download torrent:      
Info Hash:  911CA28DBC44C54AF4125EB8BF6D9C4190A5129C
Category:  Movies > Divx/Xvid
Torrent language:  English  
Seeds | Leech:  69 | 18 Update seeds and leechers stat
Complete:   72
Health:   
Total Size:  1.03 GB
Added By:        B4ND1T69 Site FriendSupermanMan
Date Added:  31-07-2020 08:30:pm | Last Edit:  31-07-2020 10:16:pm

IMDB
Unthinkable
Unthinkable
Genre Crime, Drama, Thriller

Director Gregor Jordan

Writer Peter Woodward

Actors Samuel L. Jackson, Carrie-Anne Moss, Michael Sheen, Stephen Root

Plot A convert to Islam sends the U.S. government a tape showing him in three nondescript storage rooms, each of which may contain a nuclear bomb set to detonate in less than a week. Helen Brody, an FBI agent in L.A., is tasked with finding the bombs while a CIA "consultant," known as H, interrogates the suspect who has allowed himself to be caught. The suspect, whose wife and children have left him and disappeared, seems to know exactly what the interrogation will entail. Even as H ratchets up the pressure, using torture over Brody's objection, the suspect doesn't crack. Should H do the unthinkable, and will Brody acquiesce? Is any Constitutional principle worth possible loss of life?

Link http://www.imdb.com/title/tt0914863


Un système d'onglets en javascript
Description Trackers Files 4 Comments 0 Download Update Seeds & Leechers Stat
Unthinkable.2010.EXTENDED.CUT.BRRip.XviD.B4ND1T69



Director: Gregor Jordan
Writer: Peter Woodward
Stars: Samuel L. Jackson, Carrie-Anne Moss, Michael Sheen

Plot/Story:
A psychological thriller centered around a black-ops interrogator and an F.B.I. Agent who press a suspect terrorist into divulging the location of three nuclear weapons set to detonate in the U.S.

General
Complete name               : Unthinkable.2010.EXTENDED.CUT.BRRip.XviD.B4ND1T69.avi
Format                      : AVI
Format/Info                 : Audio Video Interleave
File size                   : 1.03 GiB
Duration                    : 1 h 37 min
Overall bit rate            : 1 519 kb/s
Subtitles                   : Yes...Included(HI)

Video
ID                          : 0
Format                      : MPEG-4 Visual
Format profile              : Advanced [email protected]
Format settings, BVOP       : 2
Format settings, QPel       : No
Format settings, GMC        : No warppoints
Format settings, Matrix     : Default (H.263)
Codec ID                    : XVID
Codec ID/Hint               : XviD
Duration                    : 1 h 37 min
Bit rate                    : 1 378 kb/s
Width                       : 720 pixels
Height                      : 384 pixels
Display aspect ratio        : 1.85:1
Frame rate                  : 23.976 (24000/1001) FPS
Color space                 : YUV
Chroma subsampling          : 4:2:0
Bit depth                   : 8 bits
Scan type                   : Progressive
Compression mode            : Lossy
Bits/(Pixel*Frame)          : 0.208
Stream size                 : 957 MiB (91%)
Writing library             : XviD 64

Audio
ID                          : 1
Format                      : MPEG Audio
Format version              : Version 1
Format profile              : Layer 3
Codec ID                    : 55
Codec ID/Hint               : MP3
Duration                    : 1 h 37 min
Bit rate mode               : Constant
Bit rate                    : 128 kb/s
Channel(s)                  : 2 channels
Sampling rate               : 48.0 kHz
Compression mode            : Lossy
Stream size                 : 88.9 MiB (8%)
Alignment                   : Aligned on interleaves
Interleave, duration        : 24  ms (0.58 video frame)

Screenshots:










Please Seed For As Long As Possible
Or At Least 1:1 Ratio...Thanks
Enjoy Peeps


Similar Torrents
Type Name Size Added S L
HD Video Anya Olsen - Little Sister Has To Do The Unthinkab...
493.62 MB 2020-04-13 14:18:34 23 15




Trackers:
udp://tracker.coppersurfer.tk:6969/announce

Unthinkable.2010.EXTENDED.CUT.BRRip.XviD.B4ND1T69
Files
1337x text file.txt (61.00 B)
Downloaded from katcr.co.txt (139.00 B)
Unthinkable.2010.EXTENDED.CUT.BRRip.XviD.B4ND1T69.avi (1.03 GB)
Unthinkable.2010.EXTENDED.CUT.BRRip.XviD.B4ND1T69.srt (109.75 kB)


Comments:
No comments still posted

Powered by TT | Page Generated In 2.067127 secs.
| RSS Feed | Feed Info