Warning! Use a VPN When Downloading Torrents!
Your IP Address is . Location
Your Internet Provider can see when you download torrents! Hide your IP Address with a VPN
ProStyleX warns: You must use ProStyleX VPN to hide your torrenting. It's FREE HIDE ME NOW
Xvid/x264



Non-English

Site Friends
      ETTV

      Torrentz2

      Free Courses Online

      OneHack




The.Rocketeer.1991.BRRip.XviD.B4ND1T69


Download torrent:      
Info Hash:  92C350AEA48C31890814BC619DFA599A1A8BB10B
Category:  Movies > Divx/Xvid
Torrent language:  English  
Seeds | Leech:  9 | 0 Update seeds and leechers stat
Complete:   449
Health:   
Total Size:  1.04 GB
Added By:        B4ND1T69 Site FriendSupermanMan
Date Added:  31-07-2020 08:29:pm | Last Edit:  09-08-2020 12:43:pm

IMDB
The Rocketeer
The Rocketeer
Genre Action, Adventure, Family, Sci-Fi

Director Joe Johnston

Writer Dave Stevens (graphic novel "The Rocketeer"), Danny Bilson (story), Paul De Meo (story), William Dear (story), Danny Bilson (screenplay), Paul De Meo (screenplay)

Actors Billy Campbell, Jennifer Connelly, Alan Arkin, Timothy Dalton

Plot Straight from the pages of a pulp comic from a past era, the Rocketeer recreates 1930's Hollywood, complete with gangsters, Nazi spies, and the growth of the Age of Aviation. Young pilot Cliff Secord stumbles on a top secret rocket-pack and with the help of his mechanic/mentor, Peevy, he attempts to save his girl and stop the Nazis as The Rocketeer.

Link https://www.imdb.com/title/tt0102803/


Un système d'onglets en javascript
Description Trackers Files 4 Comments 1 Download Update Seeds & Leechers Stat
The.Rocketeer.1991.BRRip.XviD.B4ND1T69



Director: Joe Johnston
Writers: Dave Stevens (graphic novel "The Rocketeer"), Danny Bilson (story)
Stars: Billy Campbell, Jennifer Connelly, Alan Arkin

Plot/Story:
A young pilot stumbles onto a prototype jetpack that allows him to become a high-flying masked hero.

General
Complete name               : The.Rocketeer.1991.BRRip.XviD.B4ND1T69.avi
Format                      : AVI
Format/Info                 : Audio Video Interleave
File size                   : 1.04 GiB
Duration                    : 1 h 48 min
Overall bit rate            : 1 375 kb/s
Subtitles                   : Yes...Hardcoded for non-English parts + file included(HI)

Video
ID                          : 0
Format                      : MPEG-4 Visual
Format profile              : Advanced [email protected]
Format settings, BVOP       : 2
Format settings, QPel       : No
Format settings, GMC        : No warppoints
Format settings, Matrix     : Default (H.263)
Codec ID                    : XVID
Codec ID/Hint               : XviD
Duration                    : 1 h 48 min
Bit rate                    : 1 234 kb/s
Width                       : 720 pixels
Height                      : 304 pixels
Display aspect ratio        : 2.35:1
Frame rate                  : 23.976 (24000/1001) FPS
Color space                 : YUV
Chroma subsampling          : 4:2:0
Bit depth                   : 8 bits
Scan type                   : Progressive
Compression mode            : Lossy
Bits/(Pixel*Frame)          : 0.235
Stream size                 : 958 MiB (90%)
Writing library             : XviD 64

Audio
ID                          : 1
Format                      : MPEG Audio
Format version              : Version 1
Format profile              : Layer 3
Codec ID                    : 55
Codec ID/Hint               : MP3
Duration                    : 1 h 48 min
Bit rate mode               : Constant
Bit rate                    : 128 kb/s
Channel(s)                  : 2 channels
Sampling rate               : 48.0 kHz
Compression mode            : Lossy
Stream size                 : 99.4 MiB (9%)
Alignment                   : Aligned on interleaves
Interleave, duration        : 24  ms (0.58 video frame)

Screenshots:










Please Seed For As Long As Possible
Or At Least 1:1 Ratio...Thanks
Enjoy Peeps


Similar Torrents
Type Name Size Added S L
Audio VA - The Best Of The Rock (2019) Mp3 320kbps Songs...
1.01 GB 2019-04-10 00:42:49 1909 1163
Audio VA - The Best Of The Rock Vol.4 (2019) Mp3 320kbps...
1.07 GB 2019-04-27 17:44:56 1816 427
Audio VA - The Best Of The Rock Vol.2 (2019) Mp3 320kbps...
949.46 MB 2019-04-10 14:21:25 1543 669
Video Glowing bronzed skin, the table, and shove the roc...
695.92 MB 2019-03-25 06:36:13 1354 898
Audio VA - The Hits Album - The Rock Album (2019) (320) ...
730.12 MB 2019-11-10 14:40:16 741 449
Audio Cliff Richard & The Shadows – The Best ...
363.61 MB 2019-11-30 09:09:01 600 206
HD Video HD SIRO-3882 time lapsenetwork AV requirementsAV ...
1.75 GB 2019-07-08 12:04:31 555 410
HD Video Pichi 19-year-olds juicy Gal mizuna the Chan, the ...
502.15 MB 2019-02-07 18:34:10 401 286
Video Rocket breast of naked Santa Girl Phase only you w...
898.25 MB 2019-02-21 19:00:45 378 541
HD Video Pichi 19-year-olds juicy Gal mizuna the Chan, the ...
891.75 MB 2019-02-05 09:09:55 346 488




Trackers:
udp://tracker.coppersurfer.tk:6969/announce

The.Rocketeer.1991.BRRip.XviD.B4ND1T69
Files
1337x text file.txt (61.00 B)
Downloaded from katcr.co.txt (139.00 B)
The.Rocketeer.1991.BRRip.XviD.B4ND1T69.avi (1.04 GB)
The.Rocketeer.1991.BRRip.XviD.B4ND1T69.srt (84.58 kB)


Comments:

<< Previous      Next >>
1 - 1

[Report] Posted: 01-08-2020 at 04:56:20
Mekkkkk



Ty

1 - 1
<< Previous      Next >>


Powered by TT | Page Generated In 0.849159 secs.
| RSS Feed | Feed Info