Warning! Use a VPN When Downloading Torrents!
Your IP Address is . Location
Your Internet Provider can see when you download torrents! Hide your IP Address with a VPN
ProStyleX warns: You must use ProStyleX VPN to hide your torrenting. It's FREE HIDE ME NOW
Xvid/x264



Non-English

Site Friends
      ETTV

      Torrentz2

      Free Courses Online

      OneHack




Young Guns-Giovani pistole (1988) ITA-ENG Ac3 5.1 BDRip 1080p H264 [ArMor]


Download torrent:      
Info Hash:  CFB02DAD081239DEAE7439AB67865E1FE1075034
Category:  Movies > HD
Torrent language:  English  
Seeds | Leech:  71 | 22 Update seeds and leechers stat
Complete:   275
Health:   
Total Size:  3.62 GB
Added By:        ArMor
Date Added:  31-07-2020 08:10:pm | Last Edit:  02-08-2020 08:30:am

Un système d'onglets en javascript
Description Trackers Files 3 Comments 0 Download Update Seeds & Leechers Stat




Regista: Christopher Cain
Genere: Western
Anno: 1988
Paese: USA
Durata: 102 min
Distribuzione: COLUMBIA TRISTAR FILMS ITALIA (1989) - VIDEOGRAM, VIVIVIDEO


Plot: Un gruppo di giovani uomini armati, guidati da Billy the Kid, diventano deputati per vendicare l'omicidio dell'allevatore che divenne il loro benefattore. Ma quando Billy porta la loro autorità troppo lontano, diventano la caccia.

A group of young gunmen, led by Billy the Kid, become deputies to avenge the murder of the rancher who became their benefactor. But when Billy takes their authority too far, they become the hunted.










General
Unique ID                                : 214451316608478703195073094727026352245 (0xA155D23BEDFCB0EB998647F9CFE82075)
Complete name                            : Young Guns-Giovani pistole (1988) ITA-ENG Ac3 5.1 BDRip 1080p H264 [ArMor].mkv
Format                                   : Matroska
Format version                           : Version 4
File size                                : 3.62 GiB
Duration                                 : 1 h 46 min
Overall bit rate                         : 4 850 kb/s
Encoded date                             : UTC 2020-07-31 12:09:16
Writing application                      : mkvmerge v15.0.0 ('Duel with the Devil') 64-bit
Writing library                          : libebml v1.3.5 + libmatroska v1.4.5 / Lavf58.29.100

Video
ID                                       : 1
Format                                   : AVC
Format/Info                              : Advanced Video Codec
Format profile                           : [email protected]
Format settings                          : CABAC / 4 Ref Frames
Format settings, CABAC                   : Yes
Format settings, Reference frames        : 4 frames
Codec ID                                 : V_MPEG4/ISO/AVC
Duration                                 : 1 h 46 min
Bit rate                                 : 4 000 kb/s
Width                                    : 1 914 pixels
Height                                   : 1 080 pixels
Display aspect ratio                     : 16:9
Frame rate mode                          : Constant
Frame rate                               : 23.976 (24000/1001) FPS
Color space                              : YUV
Chroma subsampling                       : 4:2:0
Bit depth                                : 8 bits
Scan type                                : Progressive
Bits/(Pixel*Frame)                       : 0.081
Stream size                              : 2.95 GiB (81%)
Writing library                          : x264 core 157 r2935 545de2f
Encoding settings                        : cabac=1 / ref=2 / deblock=1:0:0 / analyse=0x1:0x111 / me=hex / subme=6 / psy=1 / psy_rd=1.00:0.00 / mixed_ref=1 / me_range=16 / chroma_me=1 / trellis=1 / 8x8dct=0 / cqm=0 / deadzone=21,11 / fast_pskip=1 / chroma_qp_offset=-2 / threads=18 / lookahead_threads=3 / sliced_threads=0 / nr=0 / decimate=1 / interlaced=0 / bluray_compat=0 / constrained_intra=0 / bframes=3 / b_pyramid=2 / b_adapt=1 / b_bias=0 / direct=1 / weightb=1 / open_gop=0 / weightp=1 / keyint=240 / keyint_min=24 / scenecut=40 / intra_refresh=0 / rc_lookahead=30 / rc=abr / mbtree=1 / bitrate=4000 / ratetol=1.0 / qcomp=0.60 / qpmin=0 / qpmax=69 / qpstep=4 / vbv_maxrate=50000 / vbv_bufsize=62500 / nal_hrd=none / filler=0 / ip_ratio=1.40 / aq=1:1.00
Default                                  : Yes
Forced                                   : No
Color range                              : Limited
Color primaries                          : BT.709
Transfer characteristics                 : BT.709
Matrix coefficients                      : BT.709

Audio #1
ID                                       : 2
Format                                   : AC-3
Format/Info                              : Audio Coding 3
Commercial name                          : Dolby Digital
Codec ID                                 : A_AC3
Duration                                 : 1 h 46 min
Bit rate mode                            : Constant
Bit rate                                 : 448 kb/s
Channel(s)                               : 6 channels
Channel layout                           : L R C LFE Ls Rs
Sampling rate                            : 48.0 kHz
Frame rate                               : 31.250 FPS (1536 SPF)
Compression mode                         : Lossy
Stream size                              : 342 MiB (9%)
Title                                    : Surround
Language                                 : Italian
Service kind                             : Complete Main
Default                                  : Yes
Forced                                   : No

Audio #2
ID                                       : 3
Format                                   : AC-3
Format/Info                              : Audio Coding 3
Commercial name                          : Dolby Digital
Codec ID                                 : A_AC3
Duration                                 : 1 h 46 min
Bit rate mode                            : Constant
Bit rate                                 : 448 kb/s
Channel(s)                               : 6 channels
Channel layout                           : L R C LFE Ls Rs
Sampling rate                            : 48.0 kHz
Frame rate                               : 31.250 FPS (1536 SPF)
Compression mode                         : Lossy
Stream size                              : 342 MiB (9%)
Title                                    : Surround
Language                                 : English
Service kind                             : Complete Main
Default                                  : No
Forced                                   : No




Similar Torrents
Type Name Size Added S L
Audio VA - The Hits Album - The 80s Young Guns Album [4C...
676.92 MB 2019-11-09 16:23:14 1228 596
Video Young Guy And Mature Sexy Businesswoman Julia Ann ...
187.96 MB 2019-02-26 19:12:15 701 302
HD Video Young Guy And Horny Sexy MILF Texas Patti [.MP4]
1,004.42 MB 2020-01-08 23:10:03 667 470
HD Video Young Guy Fucks His Busty Stepmom Dee Williams [.M...
1.16 GB 2020-02-02 19:38:22 598 351
HD Young Guns 1 And 2 1988-1990 720p BluRay H264 5.1 ...
1.95 GB 2020-07-27 20:33:54 381 450
HD Video Redhead MILF Hungry And Tried Young Guy Big Wiener...
1.12 GB 2020-02-28 13:33:04 372 612
HD Video indian young guy hotly kisses sleeping milf before...
191.99 MB 2019-02-27 16:45:27 370 362
HD Video Young Guy Fucks His Step-Mother Near His Playing G...
1.22 GB 2020-03-13 14:06:29 335 148
Video Hadley Haze - Young Guy Rion King Fucks His Stepmo...
171.09 MB 2019-09-22 21:55:45 312 71
HD Video Busty Old Woman Seduces Two Young Guys [.MP4]
901.42 MB 2020-01-29 18:26:46 247 106




Trackers:
udp://tracker.coppersurfer.tk:6969/announce

Young Guns-Giovani pistole (1988) ITA-ENG Ac3 5.1 BDRip 1080p H264 [ArMor]
Files
ghzdrhzrw58.jpg (91.23 kB)
Young Guns-Giovani pistole (1988) ITA-ENG Ac3 5.1 BDRip 1080p H264 [ArMor].mkv (3.62 GB)
Young.Guns.Giovani.pistole.1988.ITA-ENG.Bluray.1080p_track6_ita.srt (78.06 kB)


Comments:
No comments still posted

Powered by TT | Page Generated In 1.294949 secs.
| RSS Feed | Feed Info