Warning! Use a VPN When Downloading Torrents!
Your IP Address is . Location
Your Internet Provider can see when you download torrents! Hide your IP Address with a VPN
ProStyleX warns: You must use ProStyleX VPN to hide your torrenting. It's FREE HIDE ME NOW
Xvid/x264



Non-English

Site Friends
      ETTV

      Torrentz2

      Free Courses Online

      OneHack




Porgi l.altra guancia (1974) ITA-GER Ac3 2.0 BDRip 1080p H264 [ArMor]


Download torrent:      
Info Hash:  897FFECDB167CD47A3F3205742B98555DC5A1E23
Category:  Movies > HD
Torrent language:  Italian  
Seeds | Leech:  27 | 3 Update seeds and leechers stat
Complete:   334
Health:   
Total Size:  2.81 GB
Added By:        ArMor
Date Added:  31-07-2020 08:02:pm | Last Edit:  08-08-2020 03:14:am

Un système d'onglets en javascript
Description Trackers Files 2 Comments 0 Download Update Seeds & Leechers Stat




Regista: Franco Rossi
Genere: Comico, Commedia
Anno: 1974
Paese: Italia
Durata: 95 min
Distribuzione: Titanus - Creazioni Home Video


Plot: Due missionari (Bud Spencer e Terence Hill) entrano in conflitto con le autorità quando trasformano il loro missionario in una fattoria di pappagalli. Il vescovo di Maracaibo li chiama le sue "pecore nere" e Monsignore è stato chiamato a verificarne il comportamento. Come al solito, i nostri eroi aiutano i poveri a difendersi e provocano divertenti combattimenti con i pugni.

Two missionaries (Bud Spencer and Terence Hill) come into conflict with the authorities when they turn their missionary into a parrot farm. The Bishop of Maracaibo calls them his 'black sheep' and the Monsignore has been called to check on their behavior. Like usual, our heroes help the poor to defend themselves and provoke some funny fist fights in the process.










General
Unique ID                                : 222480629879631681540907251879505647754 (0xA76035F14BB92A86B3267D210D4D588A)
Complete name                            : Porgi l.altra guancia (1974) ITA Ac3 2.0 BDRip 1080p H264 [ArMor].mkv
Format                                   : Matroska
Format version                           : Version 4
File size                                : 2.81 GiB
Duration                                 : 1 h 33 min
Overall bit rate                         : 4 315 kb/s
Encoded date                             : UTC 2020-07-31 12:03:04
Writing application                      : mkvmerge v15.0.0 ('Duel with the Devil') 64-bit
Writing library                          : libebml v1.3.5 + libmatroska v1.4.5 / Lavf58.29.100

Video
ID                                       : 1
Format                                   : AVC
Format/Info                              : Advanced Video Codec
Format profile                           : [email protected]
Format settings                          : CABAC / 4 Ref Frames
Format settings, CABAC                   : Yes
Format settings, Reference frames        : 4 frames
Codec ID                                 : V_MPEG4/ISO/AVC
Duration                                 : 1 h 33 min
Bit rate                                 : 4 000 kb/s
Width                                    : 1 920 pixels
Height                                   : 1 080 pixels
Display aspect ratio                     : 16:9
Frame rate mode                          : Constant
Frame rate                               : 23.976 (23976/1000) FPS
Color space                              : YUV
Chroma subsampling                       : 4:2:0
Bit depth                                : 8 bits
Scan type                                : Progressive
Bits/(Pixel*Frame)                       : 0.080
Stream size                              : 2.55 GiB (91%)
Writing library                          : x264 core 157 r2935 545de2f
Encoding settings                        : cabac=1 / ref=2 / deblock=1:0:0 / analyse=0x1:0x111 / me=hex / subme=6 / psy=1 / psy_rd=1.00:0.00 / mixed_ref=1 / me_range=16 / chroma_me=1 / trellis=1 / 8x8dct=0 / cqm=0 / deadzone=21,11 / fast_pskip=1 / chroma_qp_offset=-2 / threads=18 / lookahead_threads=3 / sliced_threads=0 / nr=0 / decimate=1 / interlaced=0 / bluray_compat=0 / constrained_intra=0 / bframes=3 / b_pyramid=2 / b_adapt=1 / b_bias=0 / direct=1 / weightb=1 / open_gop=0 / weightp=1 / keyint=240 / keyint_min=24 / scenecut=40 / intra_refresh=0 / rc_lookahead=30 / rc=abr / mbtree=1 / bitrate=4000 / ratetol=1.0 / qcomp=0.60 / qpmin=0 / qpmax=69 / qpstep=4 / vbv_maxrate=50000 / vbv_bufsize=62500 / nal_hrd=none / filler=0 / ip_ratio=1.40 / aq=1:1.00
Default                                  : Yes
Forced                                   : No
Color range                              : Limited
Color primaries                          : BT.709
Transfer characteristics                 : BT.709
Matrix coefficients                      : BT.709

Audio #1
ID                                       : 2
Format                                   : AC-3
Format/Info                              : Audio Coding 3
Commercial name                          : Dolby Digital
Codec ID                                 : A_AC3
Duration                                 : 1 h 33 min
Bit rate mode                            : Constant
Bit rate                                 : 192 kb/s
Channel(s)                               : 2 channels
Channel layout                           : L R
Sampling rate                            : 48.0 kHz
Frame rate                               : 31.250 FPS (1536 SPF)
Compression mode                         : Lossy
Stream size                              : 128 MiB (4%)
Title                                    : Stereo
Language                                 : German
Service kind                             : Complete Main
Default                                  : Yes
Forced                                   : No

Audio #2
ID                                       : 3
Format                                   : AC-3
Format/Info                              : Audio Coding 3
Commercial name                          : Dolby Digital
Codec ID                                 : A_AC3
Duration                                 : 1 h 33 min
Bit rate mode                            : Constant
Bit rate                                 : 192 kb/s
Channel(s)                               : 2 channels
Channel layout                           : L R
Sampling rate                            : 48.0 kHz
Frame rate                               : 31.250 FPS (1536 SPF)
Compression mode                         : Lossy
Stream size                              : 128 MiB (4%)
Title                                    : DTS
Language                                 : Italian
Service kind                             : Complete Main
Default                                  : No
Forced                                   : No




Similar Torrents
Type Name Size Added S L
Movie Al culo rotto porgi l altra chiappa (Cento X Cento...
595.19 MB 2019-03-04 17:08:56 240 84




Trackers:
udp://tracker.coppersurfer.tk:6969/announce

Porgi l.altra guancia (1974) ITA-GER Ac3 2.0 BDRip 1080p H264 [ArMor]
Files
Porgi l.altra guancia (1974) ITA-GER Ac3 2.0 BDRip 1080p H264 [ArMor].mkv (2.81 GB)
wqyrhh56.jpg (97.21 kB)


Comments:
No comments still posted

Powered by TT | Page Generated In 0.776239 secs.
| RSS Feed | Feed Info