Warning! Use a VPN When Downloading Torrents!
Your IP Address is . Location
Your Internet Provider can see when you download torrents! Hide your IP Address with a VPN
ProStyleX warns: You must use ProStyleX VPN to hide your torrenting. It's FREE HIDE ME NOW
Xvid/x264



Non-English

Site Friends
      ETTV

      Torrentz2

      Free Courses Online

      OneHack




La montagna del dio cannibale-Slave of the cannibal god (1978) ITA Ac3 5.1-ENG Ac3 2.0 BDRip 1080p H...


Download torrent:      
Info Hash:  DCF53004E29BC3B29815B5A453C36499E50B4C1F
Category:  Movies > HD
Torrent language:  English  
Seeds | Leech:  79 | 60 Update seeds and leechers stat
Complete:   372
Health:   
Total Size:  3.28 GB
Added By:        ArMor
Date Added:  31-07-2020 07:42:pm | Last Edit:  02-08-2020 07:25:am

Un système d'onglets en javascript
Description Trackers Files 3 Comments 0 Download Update Seeds & Leechers Stat




Regista: Sergio Martino
Genere: Avventura
Anno: 1978
Paese: Italia
Durata: 105 min
Distribuzione: MEDUSA - AVO FILM


Plot: Una ragazza e suo fratello volano in Nuova Guinea per cercare una spedizione perduta, guidata da suo marito, che è scomparso nella grande giungla.

A girl and her brother fly to New Guinea to look for a lost expedition, led by her husband, which has vanished in the great jungle.










General
Unique ID                                : 181861366280276820096984377340764075473 (0x88D139A07519E980B4E255CE8B2FB5D1)
Complete name                            : La montagna del dio cannibale-Slave of the cannibal god (1978) ITA Ac3 5.1-ENG Ac3 2.0 BDRip 1080p H264 [ArMor].mkv
Format                                   : Matroska
Format version                           : Version 4
File size                                : 3.28 GiB
Duration                                 : 1 h 40 min
Overall bit rate                         : 4 667 kb/s
Encoded date                             : UTC 2020-07-31 11:53:22
Writing application                      : mkvmerge v15.0.0 ('Duel with the Devil') 64-bit
Writing library                          : libebml v1.3.5 + libmatroska v1.4.5 / Lavf58.29.100

Video
ID                                       : 1
Format                                   : AVC
Format/Info                              : Advanced Video Codec
Format profile                           : [email protected]
Format settings                          : CABAC / 4 Ref Frames
Format settings, CABAC                   : Yes
Format settings, Reference frames        : 4 frames
Codec ID                                 : V_MPEG4/ISO/AVC
Duration                                 : 1 h 40 min
Bit rate                                 : 4 000 kb/s
Width                                    : 1 888 pixels
Height                                   : 802 pixels
Display aspect ratio                     : 2.35:1
Frame rate mode                          : Constant
Frame rate                               : 24.000 FPS
Color space                              : YUV
Chroma subsampling                       : 4:2:0
Bit depth                                : 8 bits
Scan type                                : Progressive
Bits/(Pixel*Frame)                       : 0.110
Stream size                              : 2.82 GiB (86%)
Writing library                          : x264 core 157 r2935 545de2f
Encoding settings                        : cabac=1 / ref=2 / deblock=1:0:0 / analyse=0x1:0x111 / me=hex / subme=6 / psy=1 / psy_rd=1.00:0.00 / mixed_ref=1 / me_range=16 / chroma_me=1 / trellis=1 / 8x8dct=0 / cqm=0 / deadzone=21,11 / fast_pskip=1 / chroma_qp_offset=-2 / threads=18 / lookahead_threads=3 / sliced_threads=0 / nr=0 / decimate=1 / interlaced=0 / bluray_compat=0 / constrained_intra=0 / bframes=3 / b_pyramid=2 / b_adapt=1 / b_bias=0 / direct=1 / weightb=1 / open_gop=0 / weightp=1 / keyint=240 / keyint_min=24 / scenecut=40 / intra_refresh=0 / rc_lookahead=30 / rc=abr / mbtree=1 / bitrate=4000 / ratetol=1.0 / qcomp=0.60 / qpmin=0 / qpmax=69 / qpstep=4 / vbv_maxrate=50000 / vbv_bufsize=62500 / nal_hrd=none / filler=0 / ip_ratio=1.40 / aq=1:1.00
Default                                  : Yes
Forced                                   : No
Color range                              : Limited
Color primaries                          : BT.709
Transfer characteristics                 : BT.709
Matrix coefficients                      : BT.709

Audio #1
ID                                       : 2
Format                                   : AC-3
Format/Info                              : Audio Coding 3
Commercial name                          : Dolby Digital
Codec ID                                 : A_AC3
Duration                                 : 1 h 40 min
Bit rate mode                            : Constant
Bit rate                                 : 448 kb/s
Channel(s)                               : 6 channels
Channel layout                           : L R C LFE Ls Rs
Sampling rate                            : 48.0 kHz
Frame rate                               : 31.250 FPS (1536 SPF)
Compression mode                         : Lossy
Stream size                              : 322 MiB (10%)
Title                                    : DVD
Language                                 : Italian
Service kind                             : Complete Main
Default                                  : Yes
Forced                                   : No

Audio #2
ID                                       : 3
Format                                   : AC-3
Format/Info                              : Audio Coding 3
Commercial name                          : Dolby Digital
Codec ID                                 : A_AC3
Duration                                 : 1 h 40 min
Bit rate mode                            : Constant
Bit rate                                 : 192 kb/s
Channel(s)                               : 2 channels
Channel layout                           : L R
Sampling rate                            : 48.0 kHz
Frame rate                               : 31.250 FPS (1536 SPF)
Compression mode                         : Lossy
Stream size                              : 138 MiB (4%)
Title                                    : Stereo
Language                                 : English
Service kind                             : Complete Main
Default                                  : No
Forced                                   : No







Trackers:
udp://tracker.coppersurfer.tk:6969/announce

La montagna del dio cannibale-Slave of the cannibal god (1978) ITA Ac3 5.1-ENG Ac3 2.0 BDRip 1080p H264 [ArMor]
Files
gdhaehy34.jpg (191.98 kB)
La montagna del dio cannibale-Slave of the cannibal god (1978) ITA Ac3 5.1-ENG Ac3 2.0 BDRip 1080p H264 [ArMor].mkv (3.28 GB)
La.montagna.del.Dio.Cannibale.1978.ITA-ENG.Bluray.1080p_track4_ita.srt (36.73 kB)


Comments:
No comments still posted

Powered by TT | Page Generated In 1.290191 secs.
| RSS Feed | Feed Info