Warning! Use a VPN When Downloading Torrents!
Your IP Address is . Location
Your Internet Provider can see when you download torrents! Hide your IP Address with a VPN
ProStyleX warns: You must use ProStyleX VPN to hide your torrenting. It's FREE HIDE ME NOW
Xvid/x264



Non-English

Site Friends
      ETTV

      Torrentz2

      Free Courses Online

      OneHack




Il fiume dell.ira-The River (1984) ITA Ac3 2.0-ENG Ac3 5.1 BDRip 1080p H264 [ArMor]


Download torrent:      
Info Hash:  79131E1AFED6BFA5A9FB36C74DD951B83E1B6009
Category:  Movies > HD
Torrent language:  English  
Seeds | Leech:  23 | 8 Update seeds and leechers stat
Complete:   157
Health:   
Total Size:  3.99 GB
Added By:        ArMor
Date Added:  31-07-2020 07:34:pm | Last Edit:  02-08-2020 02:27:am

IMDB
The River
The River
Genre Drama

Director Mark Rydell

Writer Robert Dillon (story), Robert Dillon (screenplay), Julian Barry (screenplay)

Actors Mel Gibson, Sissy Spacek, Shane Bailey, Becky Jo Lynch

Plot Tom and Mae Garvey are a hard working farming couple living with their two children on the east Tennessee farm owned by Tom's family for generations. They and many of their neighbors have hit hard times of late. A downturn in the economy has led to dwindling land prices. But the biggest problem of late has been that their crop land has been prone to flooding as the property is adjacent to a river. Manipulating the powers that be including a local senator and the local bank, Joe Wade, who also grew up in the area and now runs the local milling company that sets the local grain prices, is working behind the scenes to buy up the properties along the river for a song as he wants to build a dam which would flood the Garvey's and others riverfront properties. The dam would generate electricity, but more importantly for Joe it would provide irrigation opportunities for farm properties away from the river, such as his own. Tom already intensely dislikes Joe as he and Mae used to go together. Joe's behind-the-scenes manoeuvrings coupled with the continuation of these and many other farming problems makes it increasingly difficult for the Garveys to hold onto their farm, Tom who seems determined at any cost to stay on the land of his ancestors.

Link https://www.imdb.com/title/tt0088007/


Un système d'onglets en javascript
Description Trackers Files 2 Comments 0 Download Update Seeds & Leechers Stat




Regista: Mark Rydell
Genere: Drammatico
Anno: 1984
Paese: USA
Durata: 122 min
Distribuzione: Universal Pictures


Plot: Una famiglia di agricoltori combatte forti tempeste, una banca sta minacciando di rientrare in possesso della propria fattoria e ci sono altri momenti difficili in una battaglia per salvare e trattenere la propria fattoria.

A farming family battles severe storms, a bank is threatening to repossess their farm, and there are other hard times in a battle to save and hold on to their farm.










General
Unique ID                                : 219084592077579324139969026222718705875 (0xA4D2285A054E42668FAEFDA1B7FBE0D3)
Complete name                            : Il fiume dell.ira-The River (1984) ITA-ENG Ac3 5.1 BDRip 1080p H264 [ArMor].mkv
Format                                   : Matroska
Format version                           : Version 4
File size                                : 3.99 GiB
Duration                                 : 2 h 3 min
Overall bit rate                         : 4 621 kb/s
Encoded date                             : UTC 2020-07-30 18:39:13
Writing application                      : mkvmerge v15.0.0 ('Duel with the Devil') 64-bit
Writing library                          : libebml v1.3.5 + libmatroska v1.4.5 / Lavf58.29.100

Video
ID                                       : 1
Format                                   : AVC
Format/Info                              : Advanced Video Codec
Format profile                           : [email protected]
Format settings                          : CABAC / 4 Ref Frames
Format settings, CABAC                   : Yes
Format settings, Reference frames        : 4 frames
Codec ID                                 : V_MPEG4/ISO/AVC
Duration                                 : 2 h 3 min
Bit rate                                 : 4 000 kb/s
Width                                    : 1 916 pixels
Height                                   : 1 040 pixels
Display aspect ratio                     : 1.85:1
Frame rate mode                          : Constant
Frame rate                               : 23.976 (24000/1001) FPS
Color space                              : YUV
Chroma subsampling                       : 4:2:0
Bit depth                                : 8 bits
Scan type                                : Progressive
Bits/(Pixel*Frame)                       : 0.084
Stream size                              : 3.44 GiB (86%)
Writing library                          : x264 core 157 r2935 545de2f
Encoding settings                        : cabac=1 / ref=2 / deblock=1:0:0 / analyse=0x1:0x111 / me=hex / subme=6 / psy=1 / psy_rd=1.00:0.00 / mixed_ref=1 / me_range=16 / chroma_me=1 / trellis=1 / 8x8dct=0 / cqm=0 / deadzone=21,11 / fast_pskip=1 / chroma_qp_offset=-2 / threads=18 / lookahead_threads=3 / sliced_threads=0 / nr=0 / decimate=1 / interlaced=0 / bluray_compat=0 / constrained_intra=0 / bframes=3 / b_pyramid=2 / b_adapt=1 / b_bias=0 / direct=1 / weightb=1 / open_gop=0 / weightp=1 / keyint=240 / keyint_min=24 / scenecut=40 / intra_refresh=0 / rc_lookahead=30 / rc=abr / mbtree=1 / bitrate=4000 / ratetol=1.0 / qcomp=0.60 / qpmin=0 / qpmax=69 / qpstep=4 / vbv_maxrate=50000 / vbv_bufsize=62500 / nal_hrd=none / filler=0 / ip_ratio=1.40 / aq=1:1.00
Default                                  : Yes
Forced                                   : No
Color range                              : Limited
Color primaries                          : BT.709
Transfer characteristics                 : BT.709
Matrix coefficients                      : BT.709

Audio #1
ID                                       : 2
Format                                   : AC-3
Format/Info                              : Audio Coding 3
Commercial name                          : Dolby Digital
Codec ID                                 : A_AC3
Duration                                 : 2 h 3 min
Bit rate mode                            : Constant
Bit rate                                 : 192 kb/s
Channel(s)                               : 2 channels
Channel layout                           : L R
Sampling rate                            : 48.0 kHz
Frame rate                               : 31.250 FPS (1536 SPF)
Compression mode                         : Lossy
Stream size                              : 170 MiB (4%)
Title                                    : DVD
Language                                 : Italian
Service kind                             : Complete Main
Default                                  : Yes
Forced                                   : No

Audio #2
ID                                       : 3
Format                                   : AC-3
Format/Info                              : Audio Coding 3
Commercial name                          : Dolby Digital
Codec ID                                 : A_AC3
Duration                                 : 2 h 3 min
Bit rate mode                            : Constant
Bit rate                                 : 448 kb/s
Channel(s)                               : 6 channels
Channel layout                           : L R C LFE Ls Rs
Sampling rate                            : 48.0 kHz
Frame rate                               : 31.250 FPS (1536 SPF)
Compression mode                         : Lossy
Stream size                              : 396 MiB (10%)
Title                                    : DTS
Language                                 : English
Service kind                             : Complete Main
Default                                  : No
Forced                                   : No







Trackers:
udp://tracker.coppersurfer.tk:6969/announce

Il fiume dell.ira-The River (1984) ITA Ac3 2.0-ENG Ac3 5.1 BDRip 1080p H264 [ArMor]
Files
gujsjfytaewr.jpg (101.24 kB)
Il fiume dell.ira-The River (1984) ITA Ac3 2.0-ENG Ac3 5.1 BDRip 1080p H264 [ArMor].mkv (3.99 GB)


Comments:
No comments still posted

Powered by TT | Page Generated In 1.711402 secs.
| RSS Feed | Feed Info