Warning! Use a VPN When Downloading Torrents!
Your IP Address is . Location
Your Internet Provider can see when you download torrents! Hide your IP Address with a VPN
ProStyleX warns: You must use ProStyleX VPN to hide your torrenting. It's FREE HIDE ME NOW
Xvid/x264



Non-English

Site Friends
      ETTV

      Torrentz2

      Free Courses Online

      OneHack




Daaka 2019 x264 720p Esub AmaZoNe Punjabi BY HuNter @ GOPISAHI


Download torrent:      
Info Hash:  375125D8AF4E474DF93A46A683D342CF6499ECC5
Category:  Movies > HD
Torrent language:  Punjabi  
Seeds | Leech:  244 | 42 Update seeds and leechers stat
Complete:   1,061
Health:   
Total Size:  970.74 MB
Added By:        GOPISAHI
Date Added:  31-07-2020 04:13:pm | Last Edit:  02-08-2020 02:27:am

IMDB
Daaka
Daaka
Genre Action

Director Baljit Singh Deo

Writer Gippy Grewal

Actors Gippy Grewal, Zareen Khan, Rana Jung Bahadur, Baninder Bunny

Plot Shinda tries robbing a bank so he can be wealthy enough to marry the love of his life. He ends up getting caught, but it turns out that he has a much bigger plan in mind, involving one of Punjab's biggest criminals.

Link http://www.imdb.com/title/tt10833860


Un système d'onglets en javascript
Description Trackers Files 2 Comments 1 Download Update Seeds & Leechers Stat
Daaka 2019  x264 720p Esub AmaZoNe Punjabi BY HuNter @ GOPISAHIhttps://www.gopisahi.life/    



Format                         : Matroska
Format version                 : Version 4
File size                      : 971 MiB
Duration                       : 2 h 16 min
Overall bit rate               : 997 kb/s
Movie name                     : Daaka 2019 GOPI SAHI
Encoded date                   : UTC 2020-07-31 13:08:18

Video
ID                             : 1
Format                         : AVC
Format/Info                    : Advanced Video Codec
Format profile                 : [email protected]
Format settings                : CABAC / 5 Ref Frames
Format settings, CABAC         : Yes
Format settings, Reference fra : 5 frames
Codec ID                       : V_MPEG4/ISO/AVC
Duration                       : 2 h 16 min
Bit rate                       : 899 kb/s
Width                          : 1 280 pixels
Height                         : 544 pixels
Display aspect ratio           : 2.35:1
Frame rate mode                : Constant
Frame rate                     : 24.000 FPS
Color space                    : YUV
Chroma subsampling             : 4:2:0
Bit depth                      : 8 bits
Scan type                      : Progressive
Bits/(Pixel*Frame)             : 0.054
Stream size                    : 875 MiB (90%)
Title                          : GOPI SAHI
Writing library                : x264 core 157 r2935 545de2f

Audio
ID                             : 2
Format                         : AAC LC
Format/Info                    : Advanced Audio Codec Low Complexity
Codec ID                       : A_AAC-2
Duration                       : 2 h 16 min
Bit rate                       : 96.0 kb/s
Channel(s)                     : 2 channels
Channel layout                 : L R
Sampling rate                  : 48.0 kHz
Frame rate                     : 46.875 FPS (1024 SPF)
Compression mode               : Lossy
Delay relative to video        : -21 ms
Stream size                    : 93.4 MiB (10%)
Title                          : GOPI SAHI
Language                       : Panjabi
Default                        : Yes
Forced                         : No

Text
Language                       : English


 






Similar Torrents
Type Name Size Added S L
h.264/x264 Daaka 2019.1080p.AMZN.WeB.DL.H264.DDP.5.1.DusIcTv
3.27 GB 2020-07-19 18:30:10 8 12




Trackers:
udp://tracker.coppersurfer.tk:6969/announce

This Torrent also has backup trackers
URLSeedersLeechersCompleted
http://tracker1.itzmx.com:8080/announce1981,054
http://tracker.nyap2p.com:8080/announce701,061
http://tracker1.itzmx.com:8080/announce1981,054
http://tracker.nyap2p.com:8080/announce701,061

Daaka 2019 x264 720p Esub AmaZoNe Punjabi BY HuNter @ GOPISAHI
Files
Daaka 2019 GOPI SAHI.mkv (970.74 MB)
Encooded And Uploded From.txt (88.00 B)


Comments:

<< Previous      Next >>
1 - 1

[Report] Posted: 31-07-2020 at 16:24:58
nanchy



thanks=D

1 - 1
<< Previous      Next >>


Powered by TT | Page Generated In 0.780671 secs.
| RSS Feed | Feed Info