Warning! Use a VPN When Downloading Torrents!
Your IP Address is . Location
Your Internet Provider can see when you download torrents! Hide your IP Address with a VPN
ProStyleX warns: You must use ProStyleX VPN to hide your torrenting. It's FREE HIDE ME NOW
Xvid/x264



Non-English

Site Friends
      ETTV

      Torrentz2

      Free Courses Online

      OneHack




M*A*S*H (1970).720p.H264.ita.eng.Ac3.sub.ita.eng-MIRCrew


Download torrent:      
Info Hash:  9DAEEFD6878A450391EBF596095CE8B37F11F655
Category:  Movies > HD
Torrent language:  English  
Seeds | Leech:  24 | 2 Update seeds and leechers stat
Complete:   718
Health:   
Total Size:  1.85 GB
Added By:        MIRCrewRS Site FriendSuperman
Date Added:  07-07-2020 10:33:am | Last Edit:  10-08-2020 02:44:am

Un système d'onglets en javascript
Description Trackers Files 3 Comments 0 Download Update Seeds & Leechers Stat
M*A*S*H (1970).720p.H264.ita.eng.Ac3.sub.ita.eng-MIRCrew


NO FOUND ONLY ORIGINAL RELEASE

My release is always in double track audio italian and Original audio
for select it use VLC or dvd player home
not use wmp

M*A*S*H (1970)

Quality MIRCrew on HD 720p da 1,8 gb









Titolo originale M*A*S*H
Paese di produzione Stati Uniti d'America
Anno 1970
Durata 116 min
Genere commedia, guerra
Regia Robert Altman
Soggetto Richard Hooker (romanzo)
Sceneggiatura Laura Kerr, Ring Lardner Jr., Allen Rivkin
Fotografia Harold E. Stine
Montaggio Danford B. Greene
Musiche Johnny Mandel
Scenografia Arthur Lonegan, Stuart A. Reiss



Donald Sutherland: Capitano Benjamin Franklin Falco Pierce
Elliott Gould: Capitano John Francis Xavier Razzo John McIntyre
Tom Skerritt: Capitano Augustus Bedford Duke Forrest
Sally Kellerman: Maggiore Margaret Bollore O'Houlihan
Robert Duvall: Maggiore Frank Burns
Roger Bowen: Tenente Colonnello Henry Braymore Blake
René Auberjonois: Padre John Patrick Vin santo Mulcahy
David Arkin: Sergente Maggiore Vollmer
Jo Ann Pflug: Tenente Maria Brioche Schneider
Gary Burghoff: Caporale Walter Radar O'Reilly
Fred Williamson: Capitano Oliver Harmon Catapulta Jones
Michael Murphy: Capitano Ezekiel Bradbury Me lay Marston IV
Indus Arthur: Tenente Leslie
Ken Prymus: Soldato Seidman
Bobby Troup: Sergente Gorman



Corea, anni cinquanta: durante la guerra, in un ospedale militare statunitense da campo, si svolgono le vicende di un gruppo misto di personale medico militare. Tre ufficiali medici, pur prestando la loro opera di chirurghi con bravura e dedizione, sono insofferenti alla disciplina, insolenti verso i superiori, pronti alle burle nei riguardi dei colleghi e ad amoreggiare con le attraenti infermiere



The personnel at the 4077 MASH unit deal with the horrors of the Korean War and the stresses faced in surgery by whatever means. The tone at the MASH is established by recent arrivals, surgeons Captains 'Hawkeye' Pierce, 'Duke' Forrest, and 'Trapper' John McIntyre - the latter who Hawkeye knows he's met somewhere, but Trapper who won't divulge where - whose antics can be best described as non-regulation, and in the negative words of one of their fellow MASH-ers: unmilitary.

 














General

Complete name                            : MASH (1970).720p.ita.eng.sub.ita.eng-MIRCrew\MASH (1970).720p.ita.eng.sub.ita.eng-MIRCrew.mkv
Format                                   : Matroska
Format version                           : Version 2
File size                                : 1.85 GiB
Duration                                 : 1h 55mn
Overall bit rate                         : 2 288 Kbps
Movie name                               : MIRCrew
Encoded date                             : UTC 2019-05-04 18:38:13
Writing application                      : Lavf54.63.100
Writing library                          : Lavf54.63.100
COMMENT                                  : mircrew-releases

Video
ID                                       : 1
Format                                   : AVC
Format/Info                              : Advanced Video Codec
Format profile                           : [email protected]
Format settings, CABAC                   : Yes
Format settings, ReFrames                : 2 frames
Codec ID                                 : V_MPEG4/ISO/AVC
Duration                                 : 1h 55mn
Bit rate                                 : 1 900 Kbps
Width                                    : 1 280 pixels
Height                                   : 544 pixels
Display aspect ratio                     : 2.35:1
Frame rate mode                          : Variable
Frame rate                               : 23.976 fps
Color space                              : YUV
Chroma subsampling                       : 4:2:0
Bit depth                                : 8 bits
Scan type                                : Progressive
Bits/(Pixel*Frame)                       : 0.114
Stream size                              : 1.50 GiB (81%)
Title                                    : x264  1280x544  4276 kbps  qm=16.283
Writing library                          : x264 core 130 r2273
Encoding settings                        : cabac=1 / ref=2 / deblock=1:0:0 / analyse=0x1:0x131 / me=hex / subme=7 / psy=1 / psy_rd=1.00:0.00 / mixed_ref=0 / me_range=16 / chroma_me=1 / trellis=1 / 8x8dct=0 / cqm=0 / deadzone=21,11 / fast_pskip=1 / chroma_qp_offset=-2 / threads=6 / lookahead_threads=1 / sliced_threads=0 / nr=0 / decimate=1 / interlaced=0 / bluray_compat=0 / constrained_intra=0 / bframes=3 / b_pyramid=0 / b_adapt=1 / b_bias=0 / direct=3 / weightb=1 / open_gop=0 / weightp=2 / keyint=230 / keyint_min=23 / scenecut=40 / intra_refresh=0 / rc_lookahead=40 / rc=abr / mbtree=1 / bitrate=1900 / ratetol=1.0 / qcomp=0.60 / qpmin=10 / qpmax=69 / qpstep=4 / vbv_maxrate=24000 / vbv_bufsize=24000 / nal_hrd=none / ip_ratio=1.40 / aq=1:1.00
Language                                 : Italian
Default                                  : Yes
Forced                                   : No

Audio #1
ID                                       : 2
Format                                   : AC-3
Format/Info                              : Audio Coding 3
Mode extension                           : CM (complete main)
Codec ID                                 : A_AC3
Duration                                 : 1h 55mn
Bit rate mode                            : Constant
Bit rate                                 : 192 Kbps
Channel(s)                               : 2 channels
Channel positions                        : Front: L R
Sampling rate                            : 48.0 KHz
Bit depth                                : 16 bits
Compression mode                         : Lossy
Delay relative to video                  : 1mn 5s
Stream size                              : 159 MiB (8%)
Title                                    : italian
Language                                 : Italian
Default                                  : No
Forced                                   : No

Audio #2
ID                                       : 3
Format                                   : AC-3
Format/Info                              : Audio Coding 3
Mode extension                           : CM (complete main)
Codec ID                                 : A_AC3
Duration                                 : 1h 55mn
Bit rate mode                            : Constant
Bit rate                                 : 192 Kbps
Channel(s)                               : 2 channels
Channel positions                        : Front: L R
Sampling rate                            : 48.0 KHz
Bit depth                                : 16 bits
Compression mode                         : Lossy
Delay relative to video                  : 1mn 5s
Stream size                              : 159 MiB (8%)
Title                                    : english
Language                                 : English
Default                                  : Yes
Forced                                   : No

Menu
00:00:00.000                             : :00:00:00.000
00:03:04.684                             : :00:03:04.684
00:05:06.973                             : :00:05:06.973
00:07:09.512                             : :00:07:09.512
00:11:00.493                             : :00:11:00.493
00:13:01.864                             : :00:13:01.864
00:14:26.115                             : :00:14:26.115
00:19:29.752                             : :00:19:29.752
00:24:50.239                             : :00:24:50.239
00:27:48.584                             : :00:27:48.584
00:32:00.293                             : :00:32:00.293
00:36:56.172                             : :00:36:56.172
00:38:01.988                             : :00:38:01.988
00:41:04.295                             : :00:41:04.295
00:45:28.517                             : :00:45:28.517
00:47:28.471                             : :00:47:28.471
00:51:09.483                             : :00:51:09.483
00:55:39.002                             : :00:55:39.002
00:57:51.677                             : :00:57:51.677
01:02:57.482                             : :01:02:57.482
01:06:46.002                             : :01:06:46.002
01:09:10.563                             : :01:09:10.563
01:14:29.632                             : :01:14:29.632
01:15:54.425                             : :01:15:54.425
01:17:17.508                             : :01:17:17.508
01:19:47.032                             : :01:19:47.032
01:22:18.225                             : :01:22:18.225
01:24:12.506                             : :01:24:12.506
01:26:16.588                             : :01:26:16.588
01:28:41.900                             : :01:28:41.900
01:30:03.898                             : :01:30:03.898
01:30:57.410                             : :01:30:57.410
01:35:18.421                             : :01:35:18.421
01:37:19.042                             : :01:37:19.042
01:42:21.927                             : :01:42:21.927
01:43:18.275                             : :01:43:18.275
01:45:34.662                             : :01:45:34.662
01:48:54.862                             : :01:48:54.862
01:52:00.172                             : :01:52:00.172
01:54:41.583                             : :01:54:41.583










Trackers:
udp://tracker.torrent.eu.org:451/announce

M*A*S*H (1970).720p.H264.ita.eng.Ac3.sub.ita.eng-MIRCrew
Files
MASH (1970).720p.ita.eng.sub.ita.eng-MIRCrew.eng.srt (239.75 kB)
MASH (1970).720p.ita.eng.sub.ita.eng-MIRCrew.ita.srt (108.54 kB)
MASH (1970).720p.ita.eng.sub.ita.eng-MIRCrew.mkv (1.85 GB)


Comments:
No comments still posted

Powered by TT | Page Generated In 1.406714 secs.
| RSS Feed | Feed Info