Warning! Use a VPN When Downloading Torrents!
Your IP Address is . Location
Your Internet Provider can see when you download torrents! Hide your IP Address with a VPN
ProStyleX warns: You must use ProStyleX VPN to hide your torrenting. It's FREE HIDE ME NOW
Xvid/x264



Non-English

Site Friends
      ETTV

      Torrentz2

      Free Courses Online

      OneHack




Deception - Sex List omicidio a tre (2008).720p.H264.ita.eng.Ac3-5.1.sub.ita.eng-MIRCrew


Download torrent:      
Info Hash:  23B33B5081649B54B03CE267885E931F1604A5F3
Category:  Movies > HD
Torrent language:  English  
Seeds | Leech:  21 | 8 Update seeds and leechers stat
Complete:   435
Health:   
Total Size:  1.99 GB
Added By:        MIRCrewRS Site FriendSuperman
Date Added:  07-07-2020 09:42:am | Last Edit:  08-08-2020 11:29:pm

Un système d'onglets en javascript
Description Trackers Files 4 Comments 0 Download Update Seeds & Leechers Stat
Deception - Sex List omicidio a tre  (2008).720p.H264.ita.eng.Ac3-5.1.sub.ita.eng-MIRCrew


NO FOUND ONLY ORIGINAL RELEASE

My release is always in double track audio italian and Original audio
for select it use VLC or dvd player home
not use wmp

Sex List - Omicidio a tre - Deception (2008)

Quality MIRCrew on HD 720p da 2,0 gb









Titolo originale Deception
Paese di produzione Stati Uniti d'America
Anno 2008
Durata 108 min
Rapporto 2,35 : 1
Genere thriller, drammatico
Regia Marcel Langenegger
Soggetto Mark Bomback
Sceneggiatura Mark Bomback





   Ewan McGregor: Jonathan McQuarry
   Hugh Jackman: Wyatt Bose/Jamie Getz
   Michelle Williams: S
   Lisa Gay Hamilton: Detective Russo
   Maggie Q: Tina
   Natasha Henstridge: Simone Wilkinson
   Charlotte Rampling: Reginetta di Wall Street
   Lynn Cohen: donna
   Bruce Altman: avvocato
   Frank Girardeau: Robert Lewman





Jonathan McQuarry lavora come contabile per una grande azienda di New York, conduce una vita solitaria che lo porta a considerarsi un fallito. Un giorno incontra l'affascinante Wyatt Bose, un avvocato molto sicuro di sé, e, nonostante le loro differenze caratteriali e sociali, i due stringono amicizia. Jonathan si trova così all'improvviso in un nuovo mondo fatto di lusso e soprattutto incontri esclusivi, dovuti all'ingresso in un sexy club riservatissimo chiamato The List.



An accountant is introduced to a mysterious sex club known as The List by his lawyer friend. But in this new world, he soon becomes the prime suspect in a woman's disappearance and a multi-million dollar heist.  

 

















General

Complete name                            : Sex List - Omicidio a tre - Deception (2008).720p.h264.ita.eng.sub.ita.eng-MIRCrew.mkv
Format                                   : Matroska
Format version                           : Version 2
File size                                : 1.99 GiB
Duration                                 : 1h 47mn
Overall bit rate                         : 2 641 Kbps
Encoded date                             : UTC 2020-07-04T12:02:55Z
Writing application                      : HandBrake 0.10.5 2016021100
Writing library                          : Lavf55.12.0

Video
ID                                       : 1
Format                                   : AVC
Format/Info                              : Advanced Video Codec
Format profile                           : [email protected]
Format settings, CABAC                   : Yes
Format settings, ReFrames                : 4 frames
Codec ID                                 : V_MPEG4/ISO/AVC
Duration                                 : 1h 47mn
Bit rate                                 : 1 900 Kbps
Width                                    : 1 280 pixels
Height                                   : 528 pixels
Display aspect ratio                     : 2.40:1
Frame rate mode                          : Variable / Variable
Frame rate                               : 23.976 fps
Color space                              : YUV
Chroma subsampling                       : 4:2:0
Bit depth                                : 8 bits
Scan type                                : Progressive
Bits/(Pixel*Frame)                       : 0.117
Stream size                              : 1.37 GiB (69%)
Writing library                          : x264 core 142 r2479 dd79a61
Encoding settings                        : cabac=1 / ref=1 / deblock=1:0:0 / analyse=0x1:0x111 / me=hex / subme=2 / psy=1 / psy_rd=1.00:0.00 / mixed_ref=0 / me_range=16 / chroma_me=1 / trellis=0 / 8x8dct=0 / cqm=0 / deadzone=21,11 / fast_pskip=1 / chroma_qp_offset=0 / threads=9 / lookahead_threads=3 / sliced_threads=0 / nr=0 / decimate=1 / interlaced=0 / bluray_compat=0 / constrained_intra=0 / bframes=3 / b_pyramid=2 / b_adapt=1 / b_bias=0 / direct=1 / weightb=1 / open_gop=0 / weightp=1 / keyint=240 / keyint_min=24 / scenecut=40 / intra_refresh=0 / rc_lookahead=10 / rc=abr / mbtree=1 / bitrate=1900 / ratetol=1.0 / qcomp=0.60 / qpmin=0 / qpmax=69 / qpstep=4 / vbv_maxrate=50000 / vbv_bufsize=62500 / nal_hrd=none / filler=0 / ip_ratio=1.40 / aq=1:1.00
Default                                  : Yes
Forced                                   : No
Color primaries                          : BT.709-5, BT.1361, IEC 61966-2-4, SMPTE RP177
Transfer characteristics                 : BT.709-5, BT.1361
Matrix coefficients                      : BT.709-5, BT.1361, IEC 61966-2-4 709, SMPTE RP177

Audio #1
ID                                       : 2
Format                                   : AC-3
Format/Info                              : Audio Coding 3
Mode extension                           : CM (complete main)
Codec ID                                 : A_AC3
Duration                                 : 1h 47mn
Bit rate mode                            : Constant
Bit rate                                 : 384 Kbps
Channel(s)                               : 6 channels
Channel positions                        : Front: L C R, Side: L R, LFE
Sampling rate                            : 48.0 KHz
Bit depth                                : 16 bits
Compression mode                         : Lossy
Delay relative to video                  : 1mn 5s
Stream size                              : 296 MiB (15%)
Title                                    : Surround
Language                                 : Italian
Default                                  : Yes
Forced                                   : No

Audio #2
ID                                       : 3
Format                                   : AC-3
Format/Info                              : Audio Coding 3
Mode extension                           : CM (complete main)
Codec ID                                 : A_AC3
Duration                                 : 1h 47mn
Bit rate mode                            : Constant
Bit rate                                 : 384 Kbps
Channel(s)                               : 6 channels
Channel positions                        : Front: L C R, Side: L R, LFE
Sampling rate                            : 48.0 KHz
Bit depth                                : 16 bits
Compression mode                         : Lossy
Delay relative to video                  : 1mn 5s
Stream size                              : 296 MiB (15%)
Title                                    : Surround
Language                                 : English
Default                                  : No
Forced                                   : No

Menu
00:00:00.000                             : :1. Working Late (Main Titles)
00:05:53.071                             : :2. The Right Train
00:08:16.506                             : :3. A Day Off
00:15:10.169                             : :4. Cell Phone Mixup
00:18:20.734                             : :5. Are You Free Tonight?
00:23:05.185                             : :6. No Names
00:27:57.686                             : :7. Frank and Sunbeam
00:34:02.258                             : :8. Chinatown
00:40:16.924                             : :9. Blood On the Sheets
00:43:20.691                             : :10. Starts With an "S"
00:47:46.457                             : :11. Foreplay
00:54:03.083                             : :12. His Real Name
00:59:05.426                             : :13. Well Played
01:02:57.533                             : :14. Strangled
01:06:25.283                             : :15. Phantom Accounts
01:14:53.874                             : :16. Ka-Boom!
01:18:56.450                             : :17. Enjoying Madrid
01:26:14.095                             : :18. Half and Half
01:32:14.956                             : :19. Let's Make a Deal
01:37:38.612                             : :20. The Plaza/End Titles







Similar Torrents
Type Name Size Added S L
Video SSNI-497 new small witch me Han, it enjoys a good...
6.82 GB 2019-06-19 05:34:00 3262 9938
Video schematicG dried driedneck ultra deception lu...
568.04 MB 2019-05-25 19:32:16 2995 2995
Video L. P. VISION beats series of got drunk on the lov...
164.03 MB 2019-09-13 11:17:01 2371 1770
Video Fire explosion boutique -., Ltd. about by 36E Tit...
1.29 GB 2019-05-25 09:42:29 2075 2043
Video Beauty series-height is 177 cm products black p...
780.24 MB 2019-05-06 06:19:08 1913 1364
Video shown and the Turn Back result dont contain 2019 ...
63.71 MB 2019-03-14 12:07:53 1731 1600
Video Fire explosion boutique -., Ltd. about by 36E Tit...
1.29 GB 2019-05-16 11:20:15 1679 1236
Video products sexy goddess Harbin yier within Weibo Xi...
357.85 MB 2019-05-07 19:30:47 1479 1610
Video Its 2019 conclusion substantially thighs, Breasts,...
198.43 MB 2019-04-15 18:29:15 1341 888
Video handjob Tube series Part Two- woman each hand ...
717.59 MB 2019-05-24 19:16:52 1180 1429




Trackers:
udp://tracker.torrent.eu.org:451/announce

Deception - Sex List omicidio a tre (2008).720p.H264.ita.eng.Ac3-5.1.sub.ita.eng-MIRCrew
Files
Sex List - Omicidio a tre - Deception (2008).720p.h264.ita.eng.sub.ita.eng-MIRCrew.eng.srt (68.01 kB)
Sex List - Omicidio a tre - Deception (2008).720p.h264.ita.eng.sub.ita.eng-MIRCrew.ita.srt (66.34 kB)
Sex List - Omicidio a tre - Deception (2008).720p.h264.ita.eng.sub.ita.eng-MIRCrew.mkv (1.99 GB)
Sex List - Omicidio a tre - Deception (2008).720p.h264.ita.eng.sub.ita.eng-MIRCrew.srt (386.00 B)


Comments:
No comments still posted

Powered by TT | Page Generated In 6.556674 secs.
| RSS Feed | Feed Info