Xvid/x264



Non-English

Site Friends
      ETTV

      Torrentz2

      Free Courses Online

      OneHack




Superbad (2007) Unrated & Extended (1080p BDRip x265 10bit EAC3 5.1 - xtrem3x)[TAoE].mkv


Download torrent:      
Info Hash:  644B8A347C999232E7F967BD7CC6DB7735ED4C37
Category:  Movies > HEVC/x265
Torrent language:  English  
Seeds | Leech:  29 | 11
Complete:   217
Health:   
Total Size:  6.33 GB
Added By:        Goki Site FriendSuperman
Date Added:  01-06-2020 03:10:pm | Last Edit:  11-07-2020 05:24:pm
Un système d'onglets en javascript
Description Trackers Files 1 Comments 0 Download Update Seeds & Leechers Stat





Superbad IMDB










Media Information

General
Unique ID                                : 2898017916474195915919321053950370624 (0x22E2350974AC63D1D1D25250F8BE340)
Complete name                            : Superbad (2007) Unrated & Extended (1080p BDRip x265 10bit EAC3 5.1 - xtrem3x)[TAoE].mkv
Format                                   : Matroska
Format version                           : Version 4
File size                                : 6.33 GiB
Duration                                 : 1 h 58 min
Overall bit rate                         : 7 632 kb/s
Writing application                      : Lavf58.29.100
Writing library                          : Lavf58.29.100
ErrorDetectionType                       : Per level 1

Video
ID                                       : 1
Format                                   : HEVC
Format/Info                              : High Efficiency Video Coding
Format profile                           : Main [email protected]@Main
Codec ID                                 : V_MPEGH/ISO/HEVC
Duration                                 : 1 h 58 min
Bit rate                                 : 6 970 kb/s
Width                                    : 1 920 pixels
Height                                   : 1 080 pixels
Display aspect ratio                     : 16:9
Frame rate mode                          : Variable
Frame rate                               : 23.976 FPS
Color space                              : YUV
Chroma subsampling                       : 4:2:0
Bit depth                                : 10 bits
Bits/(Pixel*Frame)                       : 0.140
Stream size                              : 5.78 GiB (91%)
Title                                    : Encoded by xtrem3x for TAoE using Shinguru V1.2
Writing library                          : x265 3.2+35-acc5d16999e2:[Windows][GCC 9.2.1][64 bit] 10bit
Encoding settings                        : cpuid=1111039 / frame-threads=3 / numa-pools=8 / wpp / no-pmode / no-pme / no-psnr / no-ssim / log-level=2 / input-csp=1 / input-res=1920x1080 / interlace=0 / total-frames=0 / level-idc=0 / high-tier=1 / uhd-bd=0 / ref=4 / no-allow-non-conformance / no-repeat-headers / annexb / no-aud / no-hrd / info / hash=0 / no-temporal-layers / open-gop / min-keyint=23 / keyint=250 / gop-lookahead=0 / bframes=8 / b-adapt=2 / b-pyramid / bframe-bias=0 / rc-lookahead=80 / lookahead-slices=4 / scenecut=40 / hist-scenecut=0 / radl=0 / no-splice / no-intra-refresh / ctu=64 / min-cu-size=8 / no-rect / no-amp / max-tu-size=32 / tu-inter-depth=1 / tu-intra-depth=1 / limit-tu=0 / rdoq-level=2 / dynamic-rd=0.00 / no-ssim-rd / signhide / no-tskip / nr-intra=0 / nr-inter=0 / no-constrained-intra / no-strong-intra-smoothing / max-merge=3 / limit-refs=3 / limit-modes / me=3 / subme=5 / merange=57 / temporal-mvp / no-frame-dup / no-hme / weightp / no-weightb / no-analyze-src-pics / deblock=0:0 / sao / no-sao-non-deblock / rd=4 / selective-sao=4 / no-early-skip / rskip / no-fast-intra / no-tskip-fast / no-cu-lossless / no-b-intra / no-splitrd-skip / rdpenalty=0 / psy-rd=1.30 / psy-rdoq=2.00 / no-rd-refine / no-lossless / cbqpoffs=0 / crqpoffs=0 / rc=crf / crf=20.0 / qcomp=0.60 / qpstep=4 / stats-write=0 / stats-read=0 / ipratio=1.40 / pbratio=1.30 / aq-mode=4 / aq-strength=1.10 / cutree / zone-count=0 / no-strict-cbr / qg-size=32 / no-rc-grain / qpmax=69 / qpmin=0 / no-const-vbv / sar=1 / overscan=0 / videoformat=5 / range=0 / colorprim=2 / transfer=2 / colormatrix=2 / chromaloc=0 / display-window=0 / cll=0,0 / min-luma=0 / max-luma=1023 / log2-max-poc-lsb=8 / vui-timing-info / vui-hrd-info / slices=1 / no-opt-qp-pps / no-opt-ref-list-length-pps / no-multi-pass-opt-rps / scenecut-bias=0.05 / hist-threshold=0.01 / no-opt-cu-delta-qp / no-aq-motion / no-hdr10 / no-hdr10-opt / no-dhdr10-opt / no-idr-recovery-sei / analysis-reuse-level=0 / analysis-save-reuse-level=0 / analysis-load-reuse-level=0 / scale-factor=0 / refine-intra=0 / refine-inter=0 / refine-mv=1 / refine-ctu-distortion=0 / no-limit-sao / ctu-info=0 / no-lowpass-dct / refine-analysis-type=0 / copy-pic=1 / max-ausize-factor=1.0 / no-dynamic-refine / no-single-sei / no-hevc-aq / no-svt / no-field / qp-adaptation-range=1.00 / no-scenecut-aware-qpconformance-window-offsets / right=0 / bottom=0
Language                                 : English
Default                                  : Yes
Forced                                   : No
Color range                              : Limited

Audio
ID                                       : 2
Format                                   : E-AC-3
Format/Info                              : Enhanced AC-3
Commercial name                          : Dolby Digital Plus
Codec ID                                 : A_EAC3
Duration                                 : 1 h 58 min
Bit rate mode                            : Constant
Bit rate                                 : 448 kb/s
Channel(s)                               : 6 channels
Channel layout                           : L R C LFE Ls Rs
Sampling rate                            : 48.0 kHz
Frame rate                               : 31.250 FPS (1536 SPF)
Bit depth                                : 24 bits
Compression mode                         : Lossy
Stream size                              : 380 MiB (6%)
Writing library                          : Lavc58.54.100 eac3
Language                                 : English
Service kind                             : Complete Main
Default                                  : Yes
Forced                                   : No

Text #1
ID                                       : 3
Format                                   : PGS
Codec ID                                 : S_HDMV/PGS
Codec ID/Info                            : Picture based subtitle format used on BDs/HD-DVDs
Duration                                 : 1 h 56 min
Bit rate                                 : 50.4 kb/s
Count of elements                        : 3884
Stream size                              : 42.0 MiB (1%)
Title                                    : PGS ENG
Language                                 : English
Default                                  : No
Forced                                   : No

Text #2
ID                                       : 4
Format                                   : PGS
Codec ID                                 : S_HDMV/PGS
Codec ID/Info                            : Picture based subtitle format used on BDs/HD-DVDs
Duration                                 : 1 h 56 min
Bit rate                                 : 34.1 kb/s
Count of elements                        : 3544
Stream size                              : 28.5 MiB (0%)
Title                                    : PGS FRE
Language                                 : French
Default                                  : No
Forced                                   : No

Text #3
ID                                       : 5
Format                                   : PGS
Codec ID                                 : S_HDMV/PGS
Codec ID/Info                            : Picture based subtitle format used on BDs/HD-DVDs
Duration                                 : 1 h 56 min
Bit rate                                 : 55.5 kb/s
Count of elements                        : 3924
Stream size                              : 46.3 MiB (1%)
Title                                    : PGS GER
Language                                 : German
Default                                  : No
Forced                                   : No

Text #4
ID                                       : 6
Format                                   : PGS
Codec ID                                 : S_HDMV/PGS
Codec ID/Info                            : Picture based subtitle format used on BDs/HD-DVDs
Duration                                 : 1 h 51 min
Bit rate                                 : 26.8 kb/s
Count of elements                        : 3708
Stream size                              : 21.4 MiB (0%)
Title                                    : PGS ARA
Language                                 : Arabic
Default                                  : No
Forced                                   : No

Text #5
ID                                       : 7
Format                                   : PGS
Codec ID                                 : S_HDMV/PGS
Codec ID/Info                            : Picture based subtitle format used on BDs/HD-DVDs
Duration                                 : 1 h 51 min
Bit rate                                 : 50.9 kb/s
Count of elements                        : 3832
Stream size                              : 40.6 MiB (1%)
Title                                    : PGS TUR
Language                                 : Turkish
Default                                  : No
Forced                                   : No

Menu
00:00:00.000                             : :Chapter 01
00:07:43.004                             : :Chapter 02
00:17:07.234                             : :Chapter 03
00:22:30.390                             : :Chapter 04
00:29:28.558                             : :Chapter 05
00:33:56.868                             : :Chapter 06
00:38:22.925                             : :Chapter 07
00:48:06.592                             : :Chapter 08
00:54:35.897                             : :Chapter 09
01:04:19.272                             : :Chapter 10
01:12:03.193                             : :Chapter 11
01:20:47.008                             : :Chapter 12
01:27:59.232                             : :Chapter 13
01:32:27.041                             : :Chapter 14
01:37:29.927                             : :Chapter 15
01:44:42.276                             : :Chapter 16


Source Information

General
Unique ID                                : 232574250385948498408986809147715851070 (0xAEF82BDB0C861CAEACCB6C2E7D55933E)
Complete name                            : Superbad.2007.Unrated&Extended.BluRay.1080p.TrueHD.5.1.AVC.REMUX-FraMeSToR.mkv
Format                                   : Matroska
Format version                           : Version 2
File size                                : 24.5 GiB
Duration                                 : 1 h 58 min
Overall bit rate mode                    : Variable
Overall bit rate                         : 29.5 Mb/s
Encoded date                             : UTC 2012-02-21 03:08:10
Writing application                      : mkvmerge v5.3.0 ('I could have danced') built on Feb  9 2012 10:38:07
Writing library                          : libebml v1.2.3 + libmatroska v1.3.0

Video
ID                                       : 1
Format                                   : AVC
Format/Info                              : Advanced Video Codec
Format profile                           : [email protected]
Format settings                          : CABAC / 2 Ref Frames
Format settings, CABAC                   : Yes
Format settings, Reference frames        : 2 frames
Codec ID                                 : V_MPEG4/ISO/AVC
Duration                                 : 1 h 58 min
Bit rate mode                            : Variable
Width                                    : 1 920 pixels
Height                                   : 1 080 pixels
Display aspect ratio                     : 16:9
Frame rate mode                          : Constant
Frame rate                               : 23.976 (24000/1001) FPS
Color space                              : YUV
Chroma subsampling                       : 4:2:0
Bit depth                                : 8 bits
Scan type                                : Progressive
Title                                    : MPEG-4 AVC Video / 1080p / 23.976 fps / 16:9 / High Profile 4.1
Language                                 : English
Default                                  : Yes
Forced                                   : No

Audio
ID                                       : 2
Format                                   : MLP FBA
Format/Info                              : Meridian Lossless Packing FBA
Commercial name                          : Dolby TrueHD
Codec ID                                 : A_TRUEHD
Duration                                 : 1 h 58 min
Bit rate mode                            : Variable
Maximum bit rate                         : 2 643 kb/s
Channel(s)                               : 6 channels
Channel layout                           : L R C LFE Ls Rs
Sampling rate                            : 48.0 kHz
Frame rate                               : 1 200.000 FPS (40 SPF)
Compression mode                         : Lossless
Language                                 : English
Default                                  : Yes
Forced                                   : No

Text #1
ID                                       : 3
Format                                   : PGS
Codec ID                                 : S_HDMV/PGS
Codec ID/Info                            : Picture based subtitle format used on BDs/HD-DVDs
Title                                    : PGS ENG
Language                                 : English
Default                                  : No
Forced                                   : No

Text #2
ID                                       : 4
Format                                   : PGS
Codec ID                                 : S_HDMV/PGS
Codec ID/Info                            : Picture based subtitle format used on BDs/HD-DVDs
Title                                    : PGS FRE
Language                                 : French
Default                                  : No
Forced                                   : No

Text #3
ID                                       : 5
Format                                   : PGS
Codec ID                                 : S_HDMV/PGS
Codec ID/Info                            : Picture based subtitle format used on BDs/HD-DVDs
Title                                    : PGS GER
Language                                 : German
Default                                  : No
Forced                                   : No

Text #4
ID                                       : 6
Format                                   : PGS
Codec ID                                 : S_HDMV/PGS
Codec ID/Info                            : Picture based subtitle format used on BDs/HD-DVDs
Title                                    : PGS ARA
Language                                 : Arabic
Default                                  : No
Forced                                   : No

Text #5
ID                                       : 7
Format                                   : PGS
Codec ID                                 : S_HDMV/PGS
Codec ID/Info                            : Picture based subtitle format used on BDs/HD-DVDs
Title                                    : PGS TUR
Language                                 : Turkish
Default                                  : No
Forced                                   : No

Menu
00:00:00.000                             : en:Chapter 01
00:07:43.004                             : en:Chapter 02
00:17:07.234                             : en:Chapter 03
00:22:30.390                             : en:Chapter 04
00:29:28.558                             : en:Chapter 05
00:33:56.868                             : en:Chapter 06
00:38:22.925                             : en:Chapter 07
00:48:06.592                             : en:Chapter 08
00:54:35.897                             : en:Chapter 09
01:04:19.272                             : en:Chapter 10
01:12:03.193                             : en:Chapter 11
01:20:47.008                             : en:Chapter 12
01:27:59.232                             : en:Chapter 13
01:32:27.041                             : en:Chapter 14
01:37:29.927                             : en:Chapter 15
01:44:42.276                             : en:Chapter 16

Hello everyone,
We are TAoE, a small team of passionate encoders who love encoding. We try our best to provide you with high quality releases.

Requests for movies and shows are welcome.
We have a form for encode requests which can be found here
Encode requests form
submit your request and it will be added to our encoding request list
You can view our encoding request list here
Encode requests list


When or if we encode it will depend on if we can obtain a good source to encode with and
if one of the TAoE encoders chooses to encode it. Unfortunately we are not able to encode everything,
new members are welcome as that helps us encode more content!

If you would like to join TAoE submit your request here!
TAoE member applications form




.........................................................................................................................................



Similar Torrents
Type Name Size Added S L
HEVC/x265 Superbad (2007) Unrated & Extended (1080p BDRi...
7.27 GB 2020-06-01 14:13:39 10 17




Trackers:
udp://tracker.coppersurfer.tk:6969/announce

Superbad (2007) Unrated & Extended (1080p BDRip x265 10bit EAC3 5.1 - xtrem3x)[TAoE].mkv
Files
Superbad (2007) Unrated & Extended (1080p BDRip x265 10bit EAC3 5.1 - xtrem3x)[TAoE].mkv (6.33 GB)


Comments:
No comments still posted

Powered by TT | Page Generated In 10.649680 secs.
| RSS Feed | Feed Info