Warning! Use a VPN When Downloading Torrents!
Your IP Address is .   Location is
Your Internet Provider is tracking your torrent activity!  Hide your IP ADDRESS with a VPN!
We strongly recommend using ExpressVPN to anonymize your torrenting. 30 Day Money Back Guarantee!
Try it Now!

Wash your hands... Stay home, Stay Safe and Play Online @ Slotslights.com

First Cams

Xvid/x264



Non-English

Site Friends
      ETTV

      Torrentz2

      Free Tutorials

      Free Courses Online

      Nulled Premium

      Aiosearch




Pokémon Mewtwo Strikes Back Evolution (2019) 720p Netflix WEB-DL Dual Audio [Hindi - Eng] DD-5.1 x2...


Download torrent:      
Info Hash:  e184c8ec41cfca5c3615b0f68055ffbd60c861dd
Category:  Movies > Dubs/Dual Audio
Torrent language:  Hindi  
Seeds | Leech:  132 | 74
Complete:   913
Health:   
Total Size:  972.77 MB
Added By:        Suryadipta
Date Added:  27-02-2020 12:27:pm | Last Edit:  29-02-2020 12:53:pm

Un système d'onglets en javascript
Description Trackers Files 2 Comments 0 Download

Visit Our Site https://hdwebmovies.live






Movie name :

Pokémon Mewtwo Strikes Back Evolution (2019) 720p Netflix WEB-DL Dual Audio [Hindi - Eng] DD-5.1 x264 900MB BongRockers [HDWebMovies]

General
Format : Matroska
Format version : Version 4
File size : 973 MiB
Duration : 1 h 37 min
Overall bit rate : 1 390 kb/s
Movie name : www.HDWebMovies.live
Encoded date : UTC 2020-02-27 11:35:02
Writing application : mkvmerge v31.0.0 ('Dolores In A Shoestand') 64-bit
Writing library : libebml v1.3.6 + libmatroska v1.4.9

Video
ID : 1
Format : AVC
Format/Info : Advanced Video Codec
Format profile : [email protected]
Format settings : CABAC / 4 Ref Frames
Format settings, CABAC : Yes
Format settings, Reference frames : 4 frames
Codec ID : V_MPEG4/ISO/AVC
Duration : 1 h 37 min
Bit rate : 1 027 kb/s
Width : 1 280 pixels
Height : 720 pixels
Display aspect ratio : 16:9
Frame rate mode : Variable
Frame rate : 23.976 FPS
Color space : YUV
Chroma subsampling : 4:2:0
Bit depth : 8 bits
Scan type : Progressive
Bits/(Pixel*Frame) : 0.046
Stream size : 702 MiB (72%)
Title : www.HDWebMovies.live
Writing library : x264 core 152 r2854 e9a5903
Encoding settings : cabac=1 / ref=1 / deblock=1:0:0 / analyse=0x3:0x3 / me=dia / subme=1 / psy=1 / psy_rd=1.00:0.00 / mixed_ref=0 / me_range=16 / chroma_me=1 / trellis=0 / 8x8dct=1 / cqm=0 / deadzone=21,11 / fast_pskip=1 / chroma_qp_offset=0 / threads=22 / lookahead_threads=3 / sliced_threads=0 / nr=0 / decimate=1 / interlaced=0 / bluray_compat=0 / constrained_intra=0 / bframes=3 / b_pyramid=2 / b_adapt=1 / b_bias=0 / direct=1 / weightb=1 / open_gop=0 / weightp=1 / keyint=250 / keyint_min=25 / scenecut=40 / intra_refresh=0 / rc=abr / mbtree=0 / bitrate=1027 / ratetol=1.0 / qcomp=0.60 / qpmin=0 / qpmax=69 / qpstep=4 / ip_ratio=1.40 / pb_ratio=1.30 / aq=1:1.00
Default : Yes
Forced : No

Audio #1
ID : 3
Format : AAC LC SBR
Format/Info : Advanced Audio Codec Low Complexity with Spectral Band Replication
Commercial name : HE-AAC
Format settings : Explicit
Codec ID : A_AAC-2
Duration : 1 h 37 min
Bit rate : 192 kb/s
Channel(s) : 6 channels
Channel layout : C L R Ls Rs LFE
Sampling rate : 48.0 kHz
Frame rate : 23.438 FPS (2048 SPF)
Compression mode : Lossy
Stream size : 134 MiB (14%)
Title : www.HDWebMovies.live
Language : English
Default : Yes
Forced : No

Audio #2
ID : 4
Format : AAC LC SBR
Format/Info : Advanced Audio Codec Low Complexity with Spectral Band Replication
Commercial name : HE-AAC
Format settings : Explicit
Codec ID : A_AAC-2
Duration : 1 h 37 min
Bit rate : 192 kb/s
Channel(s) : 6 channels
Channel layout : C L R Ls Rs LFE
Sampling rate : 48.0 kHz
Frame rate : 23.438 FPS (2048 SPF)
Compression mode : Lossy
Stream size : 134 MiB (14%)
Title : www.HDWebMovies.live
Language : Hindi
Default : No
Forced : No

Text
ID : 2
Format : ASS
Codec ID : S_TEXT/ASS
Codec ID/Info : Advanced Sub Station Alpha
Duration : 1 h 34 min
Bit rate : 82 b/s
Count of elements : 1100
Compression mode : Lossless
Stream size : 56.7 KiB (0%)
Title : www.HDWebMovies.live
Language : English
Default : Yes
Forced : No













Similar Torrents
Type Name Size Added S L
HD Pokemon.Detective.Pikachu.2019.1080p.HDRip.x264.AA...
3.53 GB 2019-06-06 02:29:12 25974 14234
Divx/Xvid Pokemon Detective Pikachu.2019.HDRip.XviD.AC3-EVO
1.39 GB 2019-06-06 05:21:02 4495 3249
Cam/TS Pokemon Detective Pikachu 2019 720p NEW HDCAM-1XBE...
2.21 GB 2019-05-14 08:39:45 3527 2646
Cam/TS Pokemon Detective Pikachu 2019 HDCAMRip Dual Audio...
924.80 MB 2019-05-14 15:56:43 1077 593
Cam/TS Pokemon Detective Pikachu (2019) ENG 720p NEW HDCA...
757.59 MB 2019-05-14 09:50:15 670 281
Divx/Xvid Pokemon.the.Movie.The.Power.of.Us.2018.BRRip.XviD....
1.26 GB 2019-03-01 13:18:24 637 605
HEVC/x265 Pokemon Detective Pikachu (2019) AC3 5.1 ITA.ENG 1...
2.50 GB 2019-08-22 18:09:06 611 264
HD Pokemon detective Pikachu (2019).1080p.H264.ITA.EN...
4.26 GB 2019-08-22 16:14:24 587 362
HD Pokemon Detective Pikachu 2019 720p BluRay x264 Du...
1.27 GB 2019-08-06 10:52:03 515 395
Dubs/Dual Audio Pokemon Detective Pikachu (2019) 720p HDRip x264 [...
853.71 MB 2019-06-06 18:34:16 460 355




Trackers:
http://tracker.nyap2p.com:8080/announce

Pokémon Mewtwo Strikes Back Evolution (2019) 720p Netflix WEB-DL Dual Audio [Hindi - Eng] DD-5.1 x264 900MB BongRockers [HDWebMovies]
Files
Join Now.txt (198.00 B)
www.HDWeMovies.live - Pokémon Mewtwo Strikes Back Evolution (2019) 720p Netflix WEB-DL Dual Audio [Hindi - Eng] DD-5.1 x264 900MB BongRockers.mkv (972.77 MB)


Comments:
No comments still posted
Powered by TT | Page Generated In 0.641326 secs.
| RSS Feed | Feed Info