Warning! Use a VPN When Downloading Torrents!
Your IP Address is .   Location is
Your Internet Provider is tracking your torrent activity!  Hide your IP ADDRESS with a VPN!
We strongly recommend using ExpressVPN to anonymize your torrenting. 30 Day Money Back Guarantee!
Try it Now!

Wash your hands... Stay home, Stay Safe and Play Online @ Slotslights.com

First Cams

Xvid/x264



Non-English

Site Friends
      ETTV

      Torrentz2

      Free Tutorials

      Free Courses Online

      Nulled Premium

      Aiosearch




Harley Quinn (2019) S01E11 Harley Quinn Highway (4Kto1080p DCU Webrip x265 10bit EAC3 5.1 - Goki)[TA...


Download torrent:      
Info Hash:  74de985b7cb6085301db86a7daa62573c3ff331c
Category:  TV > HEVC/x265
Torrent language:  English  
Seeds | Leech:  225 | 40
Complete:   1,371
Health:   
Total Size:  578.22 MB
Added By:        Goki Site FriendSuperman
Date Added:  08-02-2020 02:55:am | Last Edit:  08-02-2020 07:02:pm

IMDB
Harley Quinn
Harley Quinn Released 29 Nov 2019

Genre Animation, Action, Adventure, Comedy, Crime, Fantasy, Mystery

Director N/A

Writer Justin Halpern, Dean Lorey, Patrick Schumacker

Actors Kaley Cuoco, Lake Bell, Alan Tudyk, Ron Funches

Plot The series focuses on a single Harley Quinn, who sets off to make it on her own in Gotham City.

Link http://www.imdb.com/title/tt7658402

Last Updated 05-04-2020 01:01:32
8.4

Votes 4,977

Un système d'onglets en javascript
Description Trackers Files 1 Comments 0 Download





Harley Quinn (2019) IMDB












Media Information

Unique ID                                : 92835245076590075840704916370717568994 (0x45D76AF77B0439BCD978EE74F7FA6FE2)
Complete name                            : Harley Quinn (2019) S01E11 Harley Quinn Highway (4Kto1080p DCU Webrip x265 10bit EAC3 5.1 - Goki)[TAoE].mkv
Format                                   : Matroska
Format version                           : Version 4
File size                                : 578 MiB
Duration                                 : 22 min 55 s
Overall bit rate                         : 3 527 kb/s
Movie name                               : Harley Quinn (2019) S01E11 Harley Quinn Highway (4Kto1080p DCU Webrip x265 10bit EAC3 5.1 - Goki)[TAoE].mkv
Encoded date                             : UTC 2020-02-08 00:23:00
Writing application                      : mkvmerge v28.2.0 ('The Awakening') 64-bit
Writing library                          : libebml v1.3.6 + libmatroska v1.4.9

Video
ID                                       : 1
Format                                   : HEVC
Format/Info                              : High Efficiency Video Coding
Format profile                           : Main [email protected]@Main
Codec ID                                 : V_MPEGH/ISO/HEVC
Duration                                 : 22 min 55 s
Bit rate                                 : 2 885 kb/s
Width                                    : 1 920 pixels
Height                                   : 1 080 pixels
Display aspect ratio                     : 16:9
Frame rate mode                          : Constant
Frame rate                               : 23.976 (24000/1001) FPS
Color space                              : YUV
Chroma subsampling                       : 4:2:0
Bit depth                                : 10 bits
Bits/(Pixel*Frame)                       : 0.058
Stream size                              : 473 MiB (82%)
Writing library                          : x265 3.2.1+3-b4b2ecac21f6:[Windows][MSVC 1924][64 bit] 10bit
Encoding settings                        : cpuid=1111039 / frame-threads=2 / numa-pools=6 / wpp / no-pmode / no-pme / no-psnr / no-ssim / log-level=2 / input-csp=1 / input-res=1920x1080 / interlace=0 / total-frames=0 / level-idc=0 / high-tier=1 / uhd-bd=0 / ref=4 / no-allow-non-conformance / no-repeat-headers / annexb / no-aud / no-hrd / info / hash=0 / no-temporal-layers / open-gop / min-keyint=23 / keyint=250 / gop-lookahead=0 / bframes=8 / b-adapt=2 / b-pyramid / bframe-bias=0 / rc-lookahead=80 / lookahead-slices=4 / scenecut=40 / radl=0 / no-splice / no-intra-refresh / ctu=64 / min-cu-size=8 / no-rect / no-amp / max-tu-size=32 / tu-inter-depth=1 / tu-intra-depth=1 / limit-tu=0 / rdoq-level=2 / dynamic-rd=0.00 / no-ssim-rd / signhide / no-tskip / nr-intra=0 / nr-inter=0 / no-constrained-intra / no-strong-intra-smoothing / max-merge=3 / limit-refs=3 / limit-modes / me=3 / subme=5 / merange=57 / temporal-mvp / no-hme / weightp / no-weightb / no-analyze-src-pics / deblock=0:0 / sao / no-sao-non-deblock / rd=4 / selective-sao=4 / no-early-skip / rskip / no-fast-intra / no-tskip-fast / no-cu-lossless / no-b-intra / no-splitrd-skip / rdpenalty=0 / psy-rd=1.30 / psy-rdoq=2.00 / no-rd-refine / no-lossless / cbqpoffs=0 / crqpoffs=0 / rc=crf / crf=22.0 / qcomp=0.60 / qpstep=4 / stats-write=0 / stats-read=0 / ipratio=1.40 / pbratio=1.30 / aq-mode=2 / aq-strength=1.10 / cutree / zone-count=0 / no-strict-cbr / qg-size=32 / no-rc-grain / qpmax=69 / qpmin=0 / no-const-vbv / sar=1 / overscan=0 / videoformat=5 / range=0 / colorprim=2 / transfer=2 / colormatrix=2 / chromaloc=0 / display-window=0 / cll=0,0 / min-luma=0 / max-luma=1023 / log2-max-poc-lsb=8 / vui-timing-info / vui-hrd-info / slices=1 / no-opt-qp-pps / no-opt-ref-list-length-pps / no-multi-pass-opt-rps / scenecut-bias=0.05 / no-opt-cu-delta-qp / no-aq-motion / no-hdr / no-hdr-opt / no-dhdr10-opt / no-idr-recovery-sei / analysis-reuse-level=5 / scale-factor=0 / refine-intra=0 / refine-inter=0 / refine-mv=1 / refine-ctu-distortion=0 / no-limit-sao / ctu-info=0 / no-lowpass-dct / refine-analysis-type=0 / copy-pic=1 / max-ausize-factor=1.0 / no-dynamic-refine / no-single-sei / no-hevc-aq / no-svt / no-field / qp-adaptation-range=1.00
Default                                  : Yes
Forced                                   : No

Audio
ID                                       : 2
Format                                   : E-AC-3
Format/Info                              : Enhanced AC-3
Commercial name                          : Dolby Digital Plus
Codec ID                                 : A_EAC3
Duration                                 : 22 min 55 s
Bit rate mode                            : Constant
Bit rate                                 : 640 kb/s
Channel(s)                               : 6 channels
Channel layout                           : L R C LFE Ls Rs
Sampling rate                            : 48.0 kHz
Frame rate                               : 31.250 FPS (1536 SPF)
Compression mode                         : Lossy
Stream size                              : 105 MiB (18%)
Language                                 : English
Service kind                             : Complete Main
Default                                  : Yes
Forced                                   : No

Text
ID                                       : 3
Format                                   : UTF-8
Codec ID                                 : S_TEXT/UTF8
Codec ID/Info                            : UTF-8 Plain Text
Duration                                 : 22 min 1 s
Bit rate                                 : 83 b/s
Count of elements                        : 445
Stream size                              : 13.4 KiB (0%)
Language                                 : English
Default                                  : No
Forced                                   : No

Source
2160p DCU WEB-DL NTb
243228053844935805766835480239962472681 (0xB6FC04EBB33ECC497C11E8E9192A40E9)

Hello everyone,
We are TAoE, a small team of passionate encoders who love encoding. We try our best to provide you with high quality releases.
If you would like to join the team just drop us a comment or send us a message.



.........................................................................................................................................



Similar Torrents
Type Name Size Added S L
Divx/Xvid Birds.of.Prey.And.the.Fantabulous.Emancipation.of....
1.43 GB 2020-03-05 14:16:35 1125 389
HD Birds.of.Prey.And.the.Fantabulous.Emancipation.of....
4.96 GB 2020-03-05 14:02:38 556 178
Video CzechSexCasting 18 10 10 Jokers Harley Quinn CZECH...
213.28 MB 2018-10-10 02:06:40 482 111
Divx/Xvid Birds.of.Prey.And.the.Fantabulous.Emancipation.of....
704.26 MB 2020-03-22 10:02:46 442 132
HD Birds.of.Prey.and.the.Fantabulous.Emancipation.of....
7.52 GB 2020-03-24 12:30:19 438 139
Divx/Xvid Birds.of.Prey.And.the.Fantabulous.Emancipation.of....
1.29 GB 2020-03-05 20:41:47 420 183
Divx/Xvid Birds.of.Prey.And.the.Fantabulous.Emancipation.of....
1.32 GB 2020-03-07 13:58:15 378 117
HEVC/x265 Harley Quinn (2019) S01E01 Til Death Do Us Part (4...
536.91 MB 2019-11-30 11:13:15 373 192
HEVC/x265 Birds Of Prey And The Fantabulous Emancipation Of ...
703.07 MB 2020-03-05 21:19:35 360 185
HEVC/x265 Harley Quinn (2019) S01E06 You're a Damn Good Cop,...
433.77 MB 2020-01-04 02:22:15 331 83




Trackers:
udp://tracker.coppersurfer.tk:6969/announce

Harley Quinn (2019) S01E11 Harley Quinn Highway (4Kto1080p DCU Webrip x265 10bit EAC3 5.1 - Goki)[TAoE].mkv
Files
Harley Quinn (2019) S01E11 Harley Quinn Highway (4Kto1080p DCU Webrip x265 10bit EAC3 5.1 - Goki)[TAoE].mkv (578.22 MB)


Comments:
No comments still posted
Powered by TT | Page Generated In 1.623674 secs.
| RSS Feed | Feed Info