Warning! Use a VPN When Downloading Torrents!
Your IP Address is .   Location is
Your Internet Provider is tracking your torrent activity!  Hide your IP ADDRESS with a VPN!
We strongly recommend using Trust.Zone VPN to anonymize your torrenting. It's FREE!
Get VPN Now for FREE!
First Cams

Xvid/x264



Non-English

Site Friends
      ETTV

      Torrentz2

      Free Tutorials

      Free Courses Online

      Nulled Premium

      Aiosearch




The Big Trip - A spasso col panda (2019).720p.H264.ita.eng.Ac3-5.1.sub.ita.eng-MIRCrew


Download torrent:      
Info Hash:  dcae5d3bf7a3cb00a939d02e8cd6b315bc45a3ac
Category:  Movies > HD
Torrent language:  English  
Seeds | Leech:  630 | 138
Complete:   3,421
Health:   
Total Size:  1.58 GB
Added By:        MIRCrewRS Site FriendSuperman
Date Added:  25-01-2020 05:08:pm | Last Edit:  26-01-2020 03:16:pm

Un système d'onglets en javascript
Description Trackers Files 2 Comments 0 Download
The Big Trip - A spasso col panda (2019).720p.H264.ita.eng.Ac3-5.1.sub.ita.eng-MIRCrew


NO FOUND ONLY ORIGINAL RELEASE

My release is always in double track audio italian and Original audio
for select it use VLC or dvd player home
not use wmp

A spasso col panda - The Big Trip (2019)

Quality MIRCrew on HD 720p da 1,6 gb









Titolo originale: The Big Trip
Genere: Animazione , Avventura , Commedia , Ragazzi
Anno: 2019
Paese: Russia, USA
Durata: 90 Min



A spasso col panda racconta di come una cicogna consegna erroneamente un piccolo panda alla porta sbagliata. Un orso, un alce, una tigre e un coniglio si imbarcano in un'avventura ardua ma molto divertente attraverso la natura selvaggia per restituire il panda alla sua legittima casa



A goofy stork mistakenly delivers a baby panda to the wrong door. A bear, a moose, a tiger and a rabbit set on an arduous but fun filled adventure through wilderness to return the panda to its rightful home. .

 





General

Complete name                            : A spasso col panda - The Big Trip (2019).720p.H264.ita.eng.sub.ita-MIRCrew\A spasso col panda - The Big Trip (2019).720p.H264.ita.eng.sub.ita-MIRCrew.mkv
Format                                   : Matroska
Format version                           : Version 2
File size                                : 1.58 GiB
Duration                                 : 1h 24mn
Overall bit rate                         : 2 686 Kbps
Movie name                               : MIRCrewRS
Encoded date                             : UTC 2020-01-25T13:32:58Z
Writing application                      : HandBrake 0.10.5 2016021100
Writing library                          : Lavf55.12.0

Video
ID                                       : 1
Format                                   : AVC
Format/Info                              : Advanced Video Codec
Format profile                           : [email protected]
Format settings, CABAC                   : Yes
Format settings, ReFrames                : 4 frames
Codec ID                                 : V_MPEG4/ISO/AVC
Duration                                 : 1h 24mn
Bit rate                                 : 1 801 Kbps
Nominal bit rate                         : 1 900 Kbps
Width                                    : 1 280 pixels
Height                                   : 528 pixels
Display aspect ratio                     : 2.40:1
Frame rate                               : 24.000 fps
Color space                              : YUV
Chroma subsampling                       : 4:2:0
Bit depth                                : 8 bits
Scan type                                : Progressive
Bits/(Pixel*Frame)                       : 0.111
Stream size                              : 1.06 GiB (67%)
Writing library                          : x264 core 142 r2479 dd79a61
Encoding settings                        : cabac=1 / ref=1 / deblock=1:0:0 / analyse=0x1:0x111 / me=hex / subme=2 / psy=1 / psy_rd=1.00:0.00 / mixed_ref=0 / me_range=16 / chroma_me=1 / trellis=0 / 8x8dct=0 / cqm=0 / deadzone=21,11 / fast_pskip=1 / chroma_qp_offset=0 / threads=9 / lookahead_threads=3 / sliced_threads=0 / nr=0 / decimate=1 / interlaced=0 / bluray_compat=0 / constrained_intra=0 / bframes=3 / b_pyramid=2 / b_adapt=1 / b_bias=0 / direct=1 / weightb=1 / open_gop=0 / weightp=1 / keyint=240 / keyint_min=24 / scenecut=40 / intra_refresh=0 / rc_lookahead=10 / rc=abr / mbtree=1 / bitrate=1900 / ratetol=1.0 / qcomp=0.60 / qpmin=0 / qpmax=69 / qpstep=4 / vbv_maxrate=20000 / vbv_bufsize=25000 / nal_hrd=none / filler=0 / ip_ratio=1.40 / aq=1:1.00
Default                                  : Yes
Forced                                   : No
Color primaries                          : BT.709-5, BT.1361, IEC 61966-2-4, SMPTE RP177
Transfer characteristics                 : BT.709-5, BT.1361
Matrix coefficients                      : BT.709-5, BT.1361, IEC 61966-2-4 709, SMPTE RP177

Audio #1
ID                                       : 2
Format                                   : AC-3
Format/Info                              : Audio Coding 3
Mode extension                           : CM (complete main)
Codec ID                                 : A_AC3
Duration                                 : 1h 24mn
Bit rate mode                            : Constant
Bit rate                                 : 448 Kbps
Channel(s)                               : 6 channels
Channel positions                        : Front: L C R, Side: L R, LFE
Sampling rate                            : 48.0 KHz
Bit depth                                : 16 bits
Compression mode                         : Lossy
Delay relative to video                  : 1mn 5s
Stream size                              : 270 MiB (17%)
Title                                    : Ita Ac3 5.1
Language                                 : Italian
Default                                  : Yes
Forced                                   : No

Audio #2
ID                                       : 3
Format                                   : AC-3
Format/Info                              : Audio Coding 3
Mode extension                           : CM (complete main)
Codec ID                                 : A_AC3
Duration                                 : 1h 24mn
Bit rate mode                            : Constant
Bit rate                                 : 384 Kbps
Channel(s)                               : 6 channels
Channel positions                        : Front: L C R, Side: L R, LFE
Sampling rate                            : 48.0 KHz
Bit depth                                : 16 bits
Compression mode                         : Lossy
Delay relative to video                  : 1mn 5s
Stream size                              : 232 MiB (14%)
Title                                    : Eng Ac3 5.1
Language                                 : English
Default                                  : No
Forced                                   : No

Menu
00:00:00.000                             : :00:00:00.000
00:00:29.125                             : :00:00:29.042
00:08:22.625                             : :00:08:22.542
00:14:52.875                             : :00:14:52.792
00:22:17.916                             : :00:22:17.833
00:30:57.375                             : :00:30:57.292
00:40:37.583                             : :00:40:37.500
00:48:55.958                             : :00:48:55.875
00:55:11.541                             : :00:55:11.458
01:00:33.041                             : :01:00:32.958
01:05:13.458                             : :01:05:13.375
01:13:39.375                             : :01:13:39.250
01:19:47.708                             : :01:19:47.500








Similar Torrents
Type Name Size Added S L
x264 The.Big.Bang.Theory.S12E16.HDTV.x264-SVA[ettv]
151.40 MB 2019-02-22 03:43:44 11690 2555
x264 The.Big.Bang.Theory.S12E14.HDTV.x264-SVA[ettv]
130.52 MB 2019-02-01 03:37:00 9374 2033
x264 The.Big.Bang.Theory.S12E17.HDTV.x264-SVA[ettv]
157.43 MB 2019-03-08 03:38:33 8441 2486
x264 The.Big.Bang.Theory.S12E18.HDTV.x264-LucidTV[ettv]
156.47 MB 2019-04-05 03:23:41 8344 1844
x264 The.Big.Bang.Theory.S12E20.HDTV.x264-SHiTSPREAD[et...
134.97 MB 2019-04-26 05:28:32 8104 905
x264 The.Big.Bang.Theory.S12E23E24.HDTV.x264-SVA[ettv]
309.52 MB 2019-05-17 03:21:54 7499 2939
x264 The.Big.Bang.Theory.S12E22.HDTV.x264-SVA[ettv]
150.06 MB 2019-05-10 02:43:08 7484 1974
x264 The.Big.Bang.Theory.S12E19.HDTV.x264-LucidTV[ettv]
141.35 MB 2019-04-19 03:42:21 7016 1516
x264 The.Big.Bang.Theory.S11E19.HDTV.x264-SVA[ettv]
156.33 MB 2018-04-06 13:54:52 6844 218
x264 The.Big.Bang.Theory.S12E21.HDTV.x264-LucidTV[ettv]
138.18 MB 2019-05-03 02:46:42 6356 1755




Trackers:
udp://tracker.coppersurfer.tk:6969/announce

The Big Trip - A spasso col panda (2019).720p.H264.ita.eng.Ac3-5.1.sub.ita.eng-MIRCrew
Files
A spasso col panda - The Big Trip (2019).720p.H264.ita.eng.sub.ita-MIRCrew.ita.srt (59.58 kB)
A spasso col panda - The Big Trip (2019).720p.H264.ita.eng.sub.ita-MIRCrew.mkv (1.58 GB)


Comments:
No comments still posted
Powered by TT | Page Generated In 0.370218 secs.
| RSS Feed | Feed Info