Warning! Use a VPN When Downloading Torrents!
Your IP Address is .   Location is
Your Internet Provider is tracking your torrent activity!  Hide your IP ADDRESS with a VPN!
We strongly recommend using Trust.Zone VPN to anonymize your torrenting. It's FREE!
Get VPN Now for FREE!
First Cams

Xvid/x264



Non-English

Site Friends
      ETTV

      Torrentz2

      Free Tutorials

      Free Courses Online

      Nulled Premium

      Aiosearch




Joy (2015).720p.H264.ita.eng.Ac3-5.1.sub.ita.eng-MIRCrew


Download torrent:      
Info Hash:  ae14d794ccf86c956d05c5ff6483ee59834066e6
Category:  Movies > HD
Torrent language:  English  
Seeds | Leech:  170 | 85
Complete:   1,867
Health:   
Total Size:  2.28 GB
Added By:        MIRCrewRS Site FriendSuperman
Date Added:  22-01-2020 01:39:pm | Last Edit:  23-01-2020 09:20:am

IMDB
Joy
Joy Released 25 Dec 2015

Genre Drama

Director David O. Russell

Writer David O. Russell (screenplay), Annie Mumolo (story), David O. Russell (story)

Actors Jennifer Lawrence, Robert De Niro, Bradley Cooper, Edgar Ramírez

Plot Joy is the story of the title character, who rose to become founder and matriarch of a powerful family business dynasty.

Link http://www.imdb.com/title/tt2446980

Last Updated 28-02-2020 11:28:21
6.6

Votes 121,981

Un système d'onglets en javascript
Description Trackers Files 3 Comments 0 Download
Joy (2015).720p.H264.ita.eng.Ac3-5.1.sub.ita.eng-MIRCrew


NO FOUND ONLY ORIGINAL RELEASE

My release is always in double track audio italian and Original audio
for select it use VLC or dvd player home
not use wmp

Joy (2015)

Quality MIRCrew on HD 720p da 2,2 gb









2016 - Premio Oscar

   Candidatura a miglior attrice protagonista a Jennifer Lawrence

2016 - Golden Globe

   Migliore attrice in un film commedia o musicale a Jennifer Lawrence
   Candidatura a Miglior film commedia o musicale

2015 - Critics' Choice Movie Award
ecc...........

Titolo originale Joy
Lingua originale inglese
Paese di produzione Stati Uniti d'America
Anno 2015
Durata 124 min
Rapporto 1,85 : 1
Genere biografico, commedia, drammatico
Regia David O. Russell
Soggetto Annie Mumolo, David O. Russell
Sceneggiatura David O. Russell



   Jennifer Lawrence: Joy Mangano
   Robert De Niro: Rudy Mangano
   Bradley Cooper: Neil Walker
   Ã‰dgar Ramírez: Tony Miranne
   Diane Ladd: Mimi
   Virginia Madsen: Terry
   Isabella Rossellini: Trudy
   Isabella Crovetti-Cramp: Joy da bambina
   Elisabeth Röhm: Peggy Mangano
   Madison Wolfe: Peggy da bambina
   Dascha Polanco: Jackie
   Emily Nunez: Jackie da bambina
   Melissa Rivers: Joan Rivers
   Jimmy Jean-Louis: Toussaint
   Drena De Niro: Cindy
   Bates Wilder: Todd
   Ken Cheeseman: Gerhardt
   Johnny Lee Davenport: Ray Cagney
   Christy Scott Cashman: Sarina Kimball
   Matthew Russell: Roger
   Damien Di Paola: Marv Brickman
   Marianne Leone: Sharon



Joy è una ragazza modello con spirito di iniziativa e capacità creative, castrate però da una vita difficile. Divorziata con due figli, lavora nel servizio a terra di una compagnia aerea dove la costringono a fare il turno di notte.............



Joy is the story of the title character, who rose to become founder and matriarch of a powerful family business dynasty.

 





General

Complete name                            : Joy (2015).720p.H264.ita.eng.sub.ita.eng-MIRCrew\Joy (2015).720p.H264.ita.eng.sub.ita.eng-MIRCrew.mkv
Format                                   : Matroska
Format version                           : Version 4 / Version 2
File size                                : 2.28 GiB
Duration                                 : 2h 4mn
Overall bit rate                         : 2 630 Kbps
Encoded date                             : UTC 2019-12-29 17:31:22
Writing application                      : HandBrake 1.2.2 2019022300
Writing library                          : Lavf58.20.100

Video
ID                                       : 1
Format                                   : AVC
Format/Info                              : Advanced Video Codec
Format profile                           : [email protected]
Format settings, CABAC                   : Yes
Format settings, ReFrames                : 4 frames
Codec ID                                 : V_MPEG4/ISO/AVC
Duration                                 : 2h 4mn
Bit rate                                 : 1 809 Kbps
Nominal bit rate                         : 1 900 Kbps
Width                                    : 1 280 pixels
Height                                   : 704 pixels
Display aspect ratio                     : 16:9
Frame rate                               : 23.976 fps
Color space                              : YUV
Chroma subsampling                       : 4:2:0
Bit depth                                : 8 bits
Scan type                                : Progressive
Bits/(Pixel*Frame)                       : 0.084
Stream size                              : 1.57 GiB (69%)
Writing library                          : x264 core 157 r2935 545de2f
Encoding settings                        : cabac=1 / ref=2 / deblock=1:0:0 / analyse=0x1:0x111 / me=hex / subme=6 / psy=1 / psy_rd=1.00:0.00 / mixed_ref=1 / me_range=16 / chroma_me=1 / trellis=1 / 8x8dct=0 / cqm=0 / deadzone=21,11 / fast_pskip=1 / chroma_qp_offset=-2 / threads=6 / lookahead_threads=1 / sliced_threads=0 / nr=0 / decimate=1 / interlaced=0 / bluray_compat=0 / constrained_intra=0 / bframes=3 / b_pyramid=2 / b_adapt=1 / b_bias=0 / direct=1 / weightb=1 / open_gop=0 / weightp=1 / keyint=240 / keyint_min=24 / scenecut=40 / intra_refresh=0 / rc_lookahead=30 / rc=abr / mbtree=1 / bitrate=1900 / ratetol=1.0 / qcomp=0.60 / qpmin=0 / qpmax=69 / qpstep=4 / vbv_maxrate=50000 / vbv_bufsize=62500 / nal_hrd=none / filler=0 / ip_ratio=1.40 / aq=1:1.00
Default                                  : Yes
Forced                                   : No
DURATION                                 : 02:04:01.027000000
Color primaries                          : BT.709-5, BT.1361, IEC 61966-2-4, SMPTE RP177
Transfer characteristics                 : BT.709-5, BT.1361
Matrix coefficients                      : BT.709-5, BT.1361, IEC 61966-2-4 709, SMPTE RP177

Audio #1
ID                                       : 2
Format                                   : AC-3
Format/Info                              : Audio Coding 3
Mode extension                           : CM (complete main)
Codec ID                                 : A_AC3
Duration                                 : 2h 4mn
Bit rate mode                            : Constant
Bit rate                                 : 384 Kbps
Channel(s)                               : 6 channels
Channel positions                        : Front: L C R, Side: L R, LFE
Sampling rate                            : 48.0 KHz
Bit depth                                : 16 bits
Compression mode                         : Lossy
Delay relative to video                  : -93ms
Stream size                              : 341 MiB (15%)
Title                                    : Ita Ac3 5.1
Language                                 : Italian
Default                                  : Yes
Forced                                   : No
DURATION                                 : 02:04:00.928000000

Audio #2
ID                                       : 3
Format                                   : AC-3
Format/Info                              : Audio Coding 3
Mode extension                           : CM (complete main)
Codec ID                                 : A_AC3
Duration                                 : 2h 4mn
Bit rate mode                            : Constant
Bit rate                                 : 384 Kbps
Channel(s)                               : 6 channels
Channel positions                        : Front: L C R, Side: L R, LFE
Sampling rate                            : 48.0 KHz
Bit depth                                : 16 bits
Compression mode                         : Lossy
Delay relative to video                  : -88ms
Stream size                              : 341 MiB (15%)
Title                                    : Eng Ac3 5.1
Language                                 : English
Default                                  : No
Forced                                   : No
DURATION                                 : 02:04:00.965000000

Menu
00:00:00.088                             : :Chapter 1
00:06:14.128                             : :Chapter 2
00:09:54.140                             : :Chapter 3
00:13:43.077                             : :Chapter 4
00:19:26.795                             : :Chapter 5
00:22:54.878                             : :Chapter 6
00:28:09.359                             : :Chapter 7
00:32:45.718                             : :Chapter 8
00:36:53.674                             : :Chapter 9
00:44:02.853                             : :Chapter 10
00:48:17.065                             : :Chapter 11
00:53:25.832                             : :Chapter 12
00:56:57.961                             : :Chapter 13
01:01:13.216                             : :Chapter 14
01:06:48.718                             : :Chapter 15
01:12:52.539                             : :Chapter 16
01:16:56.450                             : :Chapter 17
01:20:53.812                             : :Chapter 18
01:26:14.215                             : :Chapter 19
01:30:24.882                             : :Chapter 20
01:35:51.083                             : :Chapter 21
01:41:28.712                             : :Chapter 22
01:47:24.401                             : :Chapter 23
01:53:58.670                             : :Chapter 24









Similar Torrents
Type Name Size Added S L
Audio The Chainsmokers - World War Joy (2019) [320 KBPS...
84.15 MB 2019-12-05 14:44:51 905 355
Audio Wilco - Ode To Joy (2019) [320 KBPS] (pradyutvam)
98.42 MB 2019-10-01 15:09:28 699 44
Audio The Dead South - Sugar & Joy (2019) [320 KBPS]...
95.52 MB 2019-10-12 10:14:11 534 72
Audio Wilco - Ode to Joy (2019) Mp3 (320kbps) [Hunter]
98.55 MB 2019-10-03 06:45:29 374 59
Video Amateur - The Celebration Of Joy (2018) 584p
488.81 MB 2018-12-24 12:24:13 90 14
Video Kiki Daire - Fill Her up with Joy (2019) 540p
324.56 MB 2019-01-04 17:16:04 81 21
Video Gocoo - Root of Joy (2011) [DVD5 PAL]
4.15 GB 2019-04-29 16:49:18 60 21
HD Sotter Bijoy (2019) Bengali 720p Web-DL x264 AAC 1...
1.03 GB 2019-06-17 18:42:52 51 37
HD Video [PinkoClub] Mia Li, Maddy Oreilly - Maddy Oreilly...
907.16 MB 2018-11-10 17:37:53 41 8
HD Video [PinkoClub] Mia Li, Maddy Oreilly - Maddy Oreilly...
464.73 MB 2018-11-10 17:36:50 24 0




Trackers:
udp://tracker.coppersurfer.tk:6969/announce

Joy (2015).720p.H264.ita.eng.Ac3-5.1.sub.ita.eng-MIRCrew
Files
Joy (2015).720p.H264.ita.eng.sub.ita.eng-MIRCrew.eng.srt (150.75 kB)
Joy (2015).720p.H264.ita.eng.sub.ita.eng-MIRCrew.ita.srt (142.81 kB)
Joy (2015).720p.H264.ita.eng.sub.ita.eng-MIRCrew.mkv (2.28 GB)


Comments:
No comments still posted
Powered by TT | Page Generated In 1.107924 secs.
| RSS Feed | Feed Info