Warning! Use a VPN When Downloading Torrents!
Your IP Address is . Location
Your Internet Provider can see when you download torrents! Hide your IP Address with a VPN
ProStyleX warns: You must use ProStyleX VPN to hide your torrenting. It's FREE HIDE ME NOW
Xvid/x264



Non-English

Site Friends
      ETTV

      Torrentz2

      Free Courses Online

      OneHack




Stuber - Autista d'assalto (2019).720p.H264.ita.eng.Ac3-5.1.sub.ita.eng-MIRCrew


Download torrent:      
Info Hash:  57975BBD8A691778938701DF7717194F7099DFE0
Category:  Movies > HD
Torrent language:  English  
Seeds | Leech:  7 | 7 Update seeds and leechers stat
Complete:   5,686
Health:   
Total Size:  1.77 GB
Added By:        MIRCrewRS Site FriendSuperman
Date Added:  14-01-2020 02:48:pm | Last Edit:  13-06-2020 04:45:pm

Un système d'onglets en javascript
Description Trackers Files 4 Comments 0 Download Update Seeds & Leechers Stat
Stuber - Autista d'assalto (2019).720p.H264.ita.eng.Ac3-5.1.sub.ita.eng-MIRCrew


NO FOUND ONLY ORIGINAL RELEASE

My release is always in double track audio italian and Original audio
for select it use VLC or dvd player home
not use wmp

Stuber - Autista d'assalto (2019)

Quality MIRCrew on HD 720p da 1,7 gb









Titolo originale Stuber
Lingua originale inglese
Paese di produzione Stati Uniti d'America
Anno 2019
Durata 105 minuti
Genere commedia, azione
Regia Michael Dowse
Sceneggiatura Tripper Clancy



   Kumail Nanjiani: Stu
   Dave Bautista: Victor Manning
   Iko Uwais: Oka Teijo
   Natalie Morales: Nicole Manning
   Betty Gilpin: Becca
   Jimmy Tatro: Richie Sandusky
   Mira Sorvino: Angie McHenry
   Karen Gillan: Sarah Morris



Un autista di Uber diventa, suo malgrado, co-protagonista in un'operazione di polizia.



A detective recruits his Uber driver into an unexpected night of adventure.

 





General
Unique ID                                : 295375203355439820737634255386706146234 (0xDE3731E4C7EFD38D32987CB77BE373BA)
Complete name                            : Stuber - Autista d'assalto (2019).720p.ita.eng.sub.ita.eng-MIRCrew\Stuber - Autista d'assalto (2019).720p.ita.eng.sub.ita.eng-MIRCrew.mkv
Format                                   : Matroska
Format version                           : Version 4 / Version 2
File size                                : 1.77 GiB
Duration                                 : 1h 33mn
Overall bit rate                         : 2 719 Kbps
Movie name                               : robbyrs
Encoded date                             : UTC 2020-01-09 18:42:32
Writing application                      : mkvmerge v26.0.0 ('In The Game') 64-bit
Writing library                          : Lavf58.20.100

Video
ID                                       : 1
Format                                   : AVC
Format/Info                              : Advanced Video Codec
Format profile                           : [email protected]
Format settings, CABAC                   : Yes
Format settings, ReFrames                : 4 frames
Codec ID                                 : V_MPEG4/ISO/AVC
Duration                                 : 1h 33mn
Bit rate                                 : 1 900 Kbps
Width                                    : 1 280 pixels
Height                                   : 528 pixels
Display aspect ratio                     : 2.40:1
Frame rate                               : 23.976 fps
Color space                              : YUV
Chroma subsampling                       : 4:2:0
Bit depth                                : 8 bits
Scan type                                : Progressive
Bits/(Pixel*Frame)                       : 0.117
Stream size                              : 1.20 GiB (67%)
Title                                    : robbyrs
Writing library                          : x264 core 157 r2935 545de2f
Encoding settings                        : cabac=1 / ref=2 / deblock=1:-1:-1 / analyse=0x1:0x111 / me=hex / subme=6 / psy=1 / psy_rd=1.00:0.15 / mixed_ref=1 / me_range=16 / chroma_me=1 / trellis=1 / 8x8dct=0 / cqm=0 / deadzone=21,11 / fast_pskip=1 / chroma_qp_offset=-3 / threads=6 / lookahead_threads=1 / sliced_threads=0 / nr=0 / decimate=1 / interlaced=0 / bluray_compat=0 / constrained_intra=0 / bframes=3 / b_pyramid=2 / b_adapt=1 / b_bias=0 / direct=1 / weightb=1 / open_gop=0 / weightp=1 / keyint=240 / keyint_min=24 / scenecut=40 / intra_refresh=0 / rc_lookahead=30 / rc=abr / mbtree=1 / bitrate=1900 / ratetol=1.0 / qcomp=0.60 / qpmin=0 / qpmax=69 / qpstep=4 / vbv_maxrate=50000 / vbv_bufsize=62500 / nal_hrd=none / filler=0 / ip_ratio=1.40 / aq=1:1.00
Language                                 : Italian
Default                                  : Yes
Forced                                   : No
DURATION                                 : 01:33:23.598000000
NUMBER_OF_FRAMES                         : 134352
NUMBER_OF_BYTES                          : 1320719331
_STATISTICS_WRITING_APP                  : mkvmerge v26.0.0 ('In The Game') 64-bit
_STATISTICS_WRITING_DATE_UTC             : 2020-01-09 18:42:32
_STATISTICS_TAGS                         : BPS DURATION NUMBER_OF_FRAMES NUMBER_OF_BYTES
Color primaries                          : BT.709-5, BT.1361, IEC 61966-2-4, SMPTE RP177
Transfer characteristics                 : BT.709-5, BT.1361
Matrix coefficients                      : BT.709-5, BT.1361, IEC 61966-2-4 709, SMPTE RP177

Audio #1
ID                                       : 2
Format                                   : AC-3
Format/Info                              : Audio Coding 3
Mode extension                           : CM (complete main)
Codec ID                                 : A_AC3
Duration                                 : 1h 33mn
Bit rate mode                            : Constant
Bit rate                                 : 448 Kbps
Channel(s)                               : 6 channels
Channel positions                        : Front: L C R, Side: L R, LFE
Sampling rate                            : 48.0 KHz
Bit depth                                : 16 bits
Compression mode                         : Lossy
Delay relative to video                  : -88ms
Stream size                              : 299 MiB (16%)
Title                                    : Ita Ac3 5.1
Language                                 : Italian
Default                                  : Yes
Forced                                   : No
DURATION                                 : 01:33:24.128000000
NUMBER_OF_FRAMES                         : 175129
NUMBER_OF_BYTES                          : 313831168
_STATISTICS_WRITING_APP                  : mkvmerge v26.0.0 ('In The Game') 64-bit
_STATISTICS_WRITING_DATE_UTC             : 2020-01-09 18:42:32
_STATISTICS_TAGS                         : BPS DURATION NUMBER_OF_FRAMES NUMBER_OF_BYTES

Audio #2
ID                                       : 3
Format                                   : AC-3
Format/Info                              : Audio Coding 3
Mode extension                           : CM (complete main)
Codec ID                                 : A_AC3
Duration                                 : 1h 33mn
Bit rate mode                            : Constant
Bit rate                                 : 384 Kbps
Channel(s)                               : 6 channels
Channel positions                        : Front: L C R, Side: L R, LFE
Sampling rate                            : 48.0 KHz
Bit depth                                : 16 bits
Compression mode                         : Lossy
Delay relative to video                  : -10ms
Stream size                              : 257 MiB (14%)
Title                                    : Eng Ac3 5.1
Language                                 : English
Default                                  : No
Forced                                   : No
DURATION                                 : 01:33:23.584000000
NUMBER_OF_FRAMES                         : 175112
NUMBER_OF_BYTES                          : 268972032
_STATISTICS_WRITING_APP                  : mkvmerge v26.0.0 ('In The Game') 64-bit
_STATISTICS_WRITING_DATE_UTC             : 2020-01-09 18:42:32
_STATISTICS_TAGS                         : BPS DURATION NUMBER_OF_FRAMES NUMBER_OF_BYTES

Menu
00:00:00.083                             : :00:00:00.000
00:03:32.796                             : :00:03:32.792
00:08:43.773                             : :00:08:43.667
00:14:06.345                             : :00:14:06.292
00:18:57.261                             : :00:18:57.167
00:23:38.500                             : :00:23:38.417
00:28:33.336                             : :00:28:33.333
00:34:39.202                             : :00:34:39.125
00:40:39.103                             : :00:40:39.083
00:47:28.220                             : :00:47:28.083
00:52:24.015                             : :00:52:23.958
00:58:02.437                             : :00:58:02.292
01:03:44.654                             : :01:03:44.625
01:12:17.166                             : :01:12:17.083
01:16:53.692                             : :01:16:53.625
01:19:55.957                             : :01:19:55.917
01:24:16.134                             : :01:24:16.000
01:29:26.194                             : :01:29:26.167










Trackers:
udp://tracker.coppersurfer.tk:6969/announce

Stuber - Autista d'assalto (2019).720p.H264.ita.eng.Ac3-5.1.sub.ita.eng-MIRCrew
Files
Stuber - Autista d'assalto (2019).720p.ita.eng.sub.ita.eng-MIRCrew.eng.srt (145.33 kB)
Stuber - Autista d'assalto (2019).720p.ita.eng.sub.ita.eng-MIRCrew.ita.srt (115.80 kB)
Stuber - Autista d'assalto (2019).720p.ita.eng.sub.ita.eng-MIRCrew.mkv (1.77 GB)
Stuber - Autista d'assalto (2019).720p.ita.eng.sub.ita.eng-MIRCrew.srt (1.45 kB)


Comments:
No comments still posted

Powered by TT | Page Generated In 2.486127 secs.
| RSS Feed | Feed Info