Warning! Use a VPN When Downloading Torrents!
Your IP Address is .   Location is
Your Internet Provider is tracking your torrent activity!  Hide your IP ADDRESS with a VPN!
We strongly recommend using ExpressVPN to anonymize your torrenting. 30 Day Money Back Guarantee!
Try it Now!

Wash your hands... Stay home, Stay Safe and Play Online @ Slotslights.com

First Cams

Xvid/x264



Non-English

Site Friends
      ETTV

      Torrentz2

      Free Tutorials

      Free Courses Online

      Nulled Premium

      Aiosearch




Harley Quinn (2019) S01E07 The Line (4Kto1080p DCU Webrip x265 10bit AC3 5.1 - Goki).mkv


Download torrent:      
Info Hash:  890d5938a488abe8629ed8f7afc00ade8df9bf26
Category:  TV > HEVC/x265
Torrent language:  English  
Seeds | Leech:  279 | 86
Complete:   1,662
Health:   
Total Size:  485.67 MB
Added By:        Goki Site FriendSuperman
Date Added:  11-01-2020 04:11:am | Last Edit:  11-01-2020 09:37:pm

IMDB
Harley Quinn
Harley Quinn Released 29 Nov 2019

Genre Animation, Action, Adventure, Comedy, Crime, Fantasy, Mystery

Director N/A

Writer Justin Halpern, Dean Lorey, Patrick Schumacker

Actors Kaley Cuoco, Lake Bell, Alan Tudyk, Ron Funches

Plot The series focuses on a single Harley Quinn, who sets off to make it on her own in Gotham City.

Link http://www.imdb.com/title/tt7658402

Last Updated 05-04-2020 01:48:05
8.4

Votes 4,977

Un système d'onglets en javascript
Description Trackers Files 1 Comments 0 Download



Harley Quinn (2019) IMDB












Media Information

Unique ID                                : 20762887430616658468296188192389387586 (0xF9EC962C6BB0BE40DB52E5C8C18D542)
Complete name                            : Harley Quinn (2019) S01E07 The Line (4Kto1080p DCU Webrip x265 10bit AC3 5.1 - Goki).mkv
Format                                   : Matroska
Format version                           : Version 4
File size                                : 486 MiB
Duration                                 : 22 min 55 s
Overall bit rate                         : 2 962 kb/s
Movie name                               : Harley Quinn (2019) S01E07 The Line (4Kto1080p DCU Webrip x265 10bit AC3 5.1 - Goki).mkv
Encoded date                             : UTC 2020-01-11 01:44:46
Writing application                      : mkvmerge v28.2.0 ('The Awakening') 64-bit
Writing library                          : libebml v1.3.6 + libmatroska v1.4.9

Video
ID                                       : 1
Format                                   : HEVC
Format/Info                              : High Efficiency Video Coding
Format profile                           : Main [email protected]@Main
Codec ID                                 : V_MPEGH/ISO/HEVC
Duration                                 : 22 min 55 s
Bit rate                                 : 2 320 kb/s
Width                                    : 1 920 pixels
Height                                   : 1 080 pixels
Display aspect ratio                     : 16:9
Frame rate mode                          : Constant
Frame rate                               : 23.976 (24000/1001) FPS
Color space                              : YUV
Chroma subsampling                       : 4:2:0
Bit depth                                : 10 bits
Bits/(Pixel*Frame)                       : 0.047
Stream size                              : 380 MiB (78%)
Writing library                          : x265 2.9+8-27d8424c799d:[Windows][MSVC 1915][64 bit] 10bit
Encoding settings                        : cpuid=1111039 / frame-threads=2 / numa-pools=6 / wpp / no-pmode / no-pme / no-psnr / no-ssim / log-level=2 / input-csp=1 / input-res=1920x1080 / interlace=0 / total-frames=0 / level-idc=0 / high-tier=1 / uhd-bd=0 / ref=4 / no-allow-non-conformance / no-repeat-headers / annexb / no-aud / no-hrd / info / hash=0 / no-temporal-layers / open-gop / min-keyint=23 / keyint=250 / gop-lookahead=0 / bframes=8 / b-adapt=2 / b-pyramid / bframe-bias=0 / rc-lookahead=100 / lookahead-slices=4 / scenecut=40 / radl=0 / no-intra-refresh / ctu=64 / min-cu-size=8 / no-rect / no-amp / max-tu-size=32 / tu-inter-depth=1 / tu-intra-depth=1 / limit-tu=0 / rdoq-level=2 / dynamic-rd=0.00 / no-ssim-rd / signhide / no-tskip / nr-intra=0 / nr-inter=0 / no-constrained-intra / no-strong-intra-smoothing / max-merge=3 / limit-refs=3 / limit-modes / me=3 / subme=5 / merange=57 / temporal-mvp / weightp / no-weightb / no-analyze-src-pics / deblock=0:0 / sao / no-sao-non-deblock / rd=4 / no-early-skip / rskip / no-fast-intra / no-tskip-fast / no-cu-lossless / no-b-intra / no-splitrd-skip / rdpenalty=0 / psy-rd=1.30 / psy-rdoq=2.00 / no-rd-refine / no-lossless / cbqpoffs=0 / crqpoffs=0 / rc=crf / crf=22.0 / qcomp=0.60 / qpstep=4 / stats-write=0 / stats-read=0 / ipratio=1.40 / pbratio=1.30 / aq-mode=2 / aq-strength=1.10 / cutree / zone-count=0 / no-strict-cbr / qg-size=32 / no-rc-grain / qpmax=69 / qpmin=0 / no-const-vbv / sar=1 / overscan=0 / videoformat=5 / range=0 / colorprim=2 / transfer=2 / colormatrix=2 / chromaloc=0 / display-window=0 / max-cll=0,0 / min-luma=0 / max-luma=1023 / log2-max-poc-lsb=8 / vui-timing-info / vui-hrd-info / slices=1 / no-opt-qp-pps / no-opt-ref-list-length-pps / no-multi-pass-opt-rps / scenecut-bias=0.05 / no-opt-cu-delta-qp / no-aq-motion / no-hdr / no-hdr-opt / no-dhdr10-opt / no-idr-recovery-sei / analysis-reuse-level=5 / scale-factor=0 / refine-intra=0 / refine-inter=0 / refine-mv=0 / no-limit-sao / ctu-info=0 / no-lowpass-dct / refine-mv-type=0 / copy-pic=1 / max-ausize-factor=1.0 / no-dynamic-refine / no-single-sei
Default                                  : Yes
Forced                                   : No

Audio
ID                                       : 2
Format                                   : AC-3
Format/Info                              : Audio Coding 3
Commercial name                          : Dolby Digital
Codec ID                                 : A_AC3
Duration                                 : 22 min 55 s
Bit rate mode                            : Constant
Bit rate                                 : 640 kb/s
Channel(s)                               : 6 channels
Channel layout                           : L R C LFE Ls Rs
Sampling rate                            : 48.0 kHz
Frame rate                               : 31.250 FPS (1536 SPF)
Compression mode                         : Lossy
Stream size                              : 105 MiB (22%)
Language                                 : English
Service kind                             : Complete Main
Default                                  : Yes
Forced                                   : No

Text
ID                                       : 3
Format                                   : UTF-8
Codec ID                                 : S_TEXT/UTF8
Codec ID/Info                            : UTF-8 Plain Text
Duration                                 : 22 min 5 s
Bit rate                                 : 115 b/s
Count of elements                        : 527
Stream size                              : 18.7 KiB (0%)
Language                                 : English
Default                                  : No
Forced                                   : No

Source
2160p DCU WEB-DL NTb
106922236708199528190418798208906601185 (0x5070794701944E9E766EE7F2B7AAA2E1)

.........................................................................................................................................



Similar Torrents
Type Name Size Added S L
Divx/Xvid Birds.of.Prey.And.the.Fantabulous.Emancipation.of....
1.43 GB 2020-03-05 14:16:35 1125 389
HD Birds.of.Prey.And.the.Fantabulous.Emancipation.of....
4.96 GB 2020-03-05 14:02:38 556 178
Video CzechSexCasting 18 10 10 Jokers Harley Quinn CZECH...
213.28 MB 2018-10-10 02:06:40 482 111
Divx/Xvid Birds.of.Prey.And.the.Fantabulous.Emancipation.of....
704.26 MB 2020-03-22 10:02:46 442 132
HD Birds.of.Prey.and.the.Fantabulous.Emancipation.of....
7.52 GB 2020-03-24 12:30:19 438 139
Divx/Xvid Birds.of.Prey.And.the.Fantabulous.Emancipation.of....
1.29 GB 2020-03-05 20:41:47 420 183
Divx/Xvid Birds.of.Prey.And.the.Fantabulous.Emancipation.of....
1.32 GB 2020-03-07 13:58:15 378 117
HEVC/x265 Harley Quinn (2019) S01E01 Til Death Do Us Part (4...
536.91 MB 2019-11-30 11:13:15 373 192
HEVC/x265 Birds Of Prey And The Fantabulous Emancipation Of ...
703.07 MB 2020-03-05 21:19:35 360 185
HEVC/x265 Harley Quinn (2019) S01E06 You're a Damn Good Cop,...
433.77 MB 2020-01-04 02:22:15 331 83




Trackers:
udp://tracker.coppersurfer.tk:6969/announce

This Torrent also has backup trackers
URLSeedersLeechersCompleted
http://tracker.opentrackr.org:1337/announce000
http://tracker3.itzmx.com:6961/announce000

Harley Quinn (2019) S01E07 The Line (4Kto1080p DCU Webrip x265 10bit AC3 5.1 - Goki).mkv
Files
Harley Quinn (2019) S01E07 The Line (4Kto1080p DCU Webrip x265 10bit AC3 5.1 - Goki).mkv (485.67 MB)


Comments:
No comments still posted
Powered by TT | Page Generated In 1.467812 secs.
| RSS Feed | Feed Info