Warning! Use a VPN When Downloading Torrents!
Your IP Address is .   Location is
Your Internet Provider is tracking your torrent activity!  Hide your IP ADDRESS with a VPN!
We strongly recommend using Trust.Zone VPN to anonymize your torrenting. It's FREE!
Get VPN Now for FREE!
First Cams

Xvid/x264



Non-English

Site Friends
      ETTV

      Torrentz2

      Free Tutorials

      Free Courses Online

      Nulled Premium

      Aiosearch




Gemini Man 2019 BluRay 1080p Dual Audio [Hindi DD 5.1 + English DD 5.1] x264 ESub - mkvCinemas [Tell...


Download torrent:      
Info Hash:  79a97ff28e101bcffb037583c2fbab95734ee201
Category:  Movies > Dubs/Dual Audio
Torrent language:  English  
Seeds | Leech:  1,715 | 2,336
Complete:   971
Health:   
Total Size:  3.71 GB
Added By:        mkvCinemas
Date Added:  08-01-2020 05:45:pm | Last Edit:  09-01-2020 01:26:pm

Un système d'onglets en javascript
Description Trackers Files 1 Comments 0 Download

Quote:

Telly is open For limited Signups  ENjoy....!!!!


Our Forum: https://sharespark.me





********************************

Gemini Man 2019 BluRay 1080p Dual Audio [Hindi DD 5.1 + English DD 5.1] x264 ESub - mkvCinemas [Telly]

Hindi Audio: iTunes


********************************

Mediainfo:-
Format                      : Matroska
Format version              : Version 2
File size                   : 3.71 GiB
Duration                    : 1h 57mn
Overall bit rate mode       : Variable
Overall bit rate            : 4 534 Kbps

Video
ID                          : 1
Format                      : AVC
Format/Info                 : Advanced Video Codec
Format profile              : [email protected]
Format settings, CABAC      : Yes
Format settings, ReFrames   : 3 frames
Muxing mode                 : Header stripping
Codec ID                    : V_MPEG4/ISO/AVC
Duration                    : 1h 57mn
Bit rate mode               : Variable
Bit rate                    : 3 500 Kbps
Maximum bit rate            : 62.5 Mbps
Width                       : 1 920 pixels
Height                      : 1 036 pixels
Display aspect ratio        : 1.85:1
Frame rate mode             : Constant
Frame rate                  : 23.976 fps
Color space                 : YUV

Audio #1
ID                          : 2
Format                      : AC-3
Format/Info                 : Audio Coding 3
Mode extension              : CM (complete main)
Format settings, Endianness : Big
Muxing mode                 : Header stripping
Codec ID                    : A_AC3
Duration                    : 1h 57mn
Bit rate mode               : Constant
Bit rate                    : 384 Kbps
Channel(s)                  : 6 channels
Channel positions           : Front: L C R, Side: L R, LFE
Sampling rate               : 48.0 KHz
Bit depth                   : 16 bits
Compression mode            : Lossy
Stream size                 : 321 MiB (8%)
Title                       : mkvCinemas
Language                    : Hindi
Default                     : Yes
Forced                      : No

Audio #2
ID                          : 3
Format                      : AC-3
Format/Info                 : Audio Coding 3
Mode extension              : CM (complete main)
Format settings, Endianness : Big
Muxing mode                 : Header stripping
Codec ID                    : A_AC3
Duration                    : 1h 57mn
Bit rate mode               : Constant
Bit rate                    : 640 Kbps
Channel(s)                  : 6 channels
Channel positions           : Front: L C R, Side: L R, LFE
Sampling rate               : 48.0 KHz
Bit depth                   : 16 bits
Compression mode            : Lossy
Stream size                 : 536 MiB (14%)
Title                       : mkvCinemas
Language                    : English
Default                     : No
Forced                      : No

Text #1
ID                          : 4
Format                      : VobSub
Muxing mode                 : zlib
Codec ID                    : S_VOBSUB
Codec ID/Info               : The same subtitle format used on DVDs
Title                       : mkvCinemas
Language                    : English
Default                     : Yes
Forced                      : No

Text #2
ID                          : 5
Format                      : VobSub
Muxing mode                 : zlib
Codec ID                    : S_VOBSUB
Codec ID/Info               : The same subtitle format used on DVDs
Title                       : mkvCinemas
Language                    : English
Default                     : No
Forced                      : No


********************************

We don't add Watermark or Audio Tags.
Wherever you Share our Stuffs, Give Proper Credit to "mkvCinemas @Team Telly"
We Keep All Torrents. In case of re-seed, please pm.


********************************







********************************



********************************


Similar Torrents
Type Name Size Added S L
HD Gemini.Man.2019.1080p.BluRay.x264
1.84 GB 2020-01-02 04:54:43 5323 4834
Cam/TS Gemini Man - (2019) - CAMRip - XviD - READNFO -INF...
1.41 GB 2019-10-07 13:25:29 4481 3748
Divx/Xvid Gemini Man.2019.HDRip.XviD.AC3-EVO
1.31 GB 2019-11-19 19:00:49 4446 2398
HD Gemini.Man.2019.1080p.WEB-DL.DD5.1.H264-CMRG[EtHD]
5.61 GB 2019-11-19 18:22:34 3114 2727
Cam/TS Gemini.Man.2019.HDCAM.x264.AC3-ETRG
953.27 MB 2019-10-04 09:36:05 2862 1204
Divx/Xvid Gemini Man.2019.HC.HDRip.XviD.AC3-EVO
1.40 GB 2019-11-15 09:54:48 2855 2384
Dubs/Dual Audio Gemini Man 2019 BluRay Dual Audio [Hindi 5.1 + Eng...
1.17 GB 2020-01-08 17:32:40 2833 3443
h.264/x264 Gemini Man.2019.HC.HDRip.XviD.AC3-EVO[EtMovies]
1.40 GB 2019-11-14 23:36:53 2313 1568
HD Gemini.Man.2019.720p.BluRay.x264
1.03 GB 2020-01-02 03:16:55 2073 1479
HD Gemini Man 2019 1080p WEB-Rip X264 AC3 - 5-1 KING...
3.66 GB 2019-11-21 14:10:17 2062 2001




Trackers:
udp://tracker.coppersurfer.tk:6969/announce

This Torrent also has backup trackers
URLSeedersLeechersCompleted
http://tracker3.itzmx.com:6961/announce000
http://tracker1.itzmx.com:8080/announce000
http://tracker.electro-torrent.pl:80/announce000

Gemini Man 2019 BluRay 1080p Dual Audio [Hindi DD 5.1 + English DD 5.1] x264 ESub - mkvCinemas [Telly]
Files
Gemini Man 2019 BluRay 1080p Dual Audio [Hindi DD 5.1 + English DD 5.1] x264 ESub - mkvCinemas [Telly].mkv (3.71 GB)


Comments:
No comments still posted
Powered by TT | Page Generated In 0.342373 secs.
| RSS Feed | Feed Info