Warning! Use a VPN When Downloading Torrents!
Your IP Address is .   Location is
Your Internet Provider is tracking your torrent activity!  Hide your IP ADDRESS with a VPN!
We strongly recommend using Trust.Zone VPN to anonymize your torrenting. It's FREE!
Get VPN Now for FREE!
First Cams

Xvid/x264



Non-English

Site Friends
      ETTV

      Torrentz2

      Free Tutorials

      Free Courses Online

      Nulled Premium

      Aiosearch




Guardians 2009 x264 720p HD Dual Audio English Hindi GOPISAHI


Download torrent:      
Info Hash:  ec2db7f079170bd5247b0130db9a3aee32ce90dd
Category:  Movies > Dubs/Dual Audio
Torrent language:  Hindi  
Seeds | Leech:  29 | 16
Complete:   372
Health:   
Total Size:  644.48 MB
Added By:        GOPISAHI
Date Added:  13-12-2019 03:07:am | Last Edit:  13-12-2019 11:25:pm

IMDB
Guardians
Guardians Released 24 Jun 2009

Genre Horror, Sci-Fi

Director Drew Maxwell

Writer Drew Maxwell

Actors Chris Bell, Benjamin Budd, Tylan Canady, Eric Cherney

Plot Twilight Cove, a small forgotten town, is besieged by hideous creatures summoned into our dimension. It's only a matter of time before the army of creatures attacks the rest of civilization...

Link http://www.imdb.com/title/tt0486592

Last Updated 25-01-2020 23:07:52
2.9

Votes 214

Un système d'onglets en javascript
Description Trackers Files 1 Comments 0 Download
https://www.gopisahi.in/



Guardians 2009 x264 720p HD Dual Audio English Hindi GOPISAHI

Format                         : Matroska
Format version                 : Version 4
File size                      : 644 MiB
Duration                       : 1 h 27 min
Overall bit rate               : 1 030 kb/s
Movie name                     : Guardians 2009 GOPISAHI

Video
Format                         : AVC
Format/Info                    : Advanced Video Codec
Format profile                 : [email protected]
Format settings                : CABAC / 9 Ref Frames
Format settings, CABAC         : Yes
Format settings, Reference fra : 9 frames
Codec ID                       : V_MPEG4/ISO/AVC
Duration                       : 1 h 27 min
Bit rate                       : 899 kb/s
Width                          : 1 280 pixels
Height                         : 720 pixels
Display aspect ratio           : 16:9
Frame rate mode                : Constant
Frame rate                     : 25.000 FPS
Color space                    : YUV
Chroma subsampling             : 4:2:0
Bit depth                      : 8 bits
Scan type                      : Progressive
Bits/(Pixel*Frame)             : 0.039
Stream size                    : 563 MiB (87%)
Title                          : GOPISAHI
Writing library                : x264 core 157 r2935 545de2f

Audio #1



Format                         : AAC LC
Duration                       : 1 h 26 min
Bit rate                       : 64.4 kb/s
Channel(s)                     : 2 channels
Channel layout                 : L R
Sampling rate                  : 48.0 kHz
Frame rate                     : 46.875 FPS (1024 SPF)
Compression mode               : Lossy
Delay relative to video        : 34 s 800 ms
Stream size                    : 40.0 MiB (6%)
Title                          : GOPISAHI
Language                       : Hindi

Audio #2
Format                         : AAC LC
Duration                       : 1 h 27 min
Bit rate                       : 64.1 kb/s
Channel(s)                     : 2 channels
Channel layout                 : L R
Sampling rate                  : 48.0 kHz
Frame rate                     : 46.875 FPS (1024 SPF)
Compression mode               : Lossy
Stream size                    : 40.1 MiB (6%)
Title                          : GOPISAHI
Language                       : English





Similar Torrents
Type Name Size Added S L
Dubs/Dual Audio Guardians The Superheroes 2017 WebRip Hindi 720p x...
792.22 MB 2019-08-13 07:39:20 2607 1355
Divx/Xvid The.Guardian.Angel.2018.HDRip.XviD.AC3-EVO
1.34 GB 2018-08-15 16:15:27 2099 636
Divx/Xvid Space.Guardians.2.2018.HDRip.XviD.AC3-EVO
1.16 GB 2018-11-13 13:52:41 2010 661
Divx/Xvid Rabbit.School.Guardians.of.the.Golden.Egg.2018.HDR...
1.15 GB 2018-10-15 22:52:57 1802 552
HD The.Walking.Dead.9x12.Guardiani.ITA.ENG.1080p.WEB-...
1.78 GB 2019-03-05 01:35:18 1457 512
HD Video +++ FC2-PPV-1242709 [personal photography・set-sa...
1.35 GB 2020-01-20 22:47:38 1249 490
Dubs/Dual Audio Guardians The Superheroes 2017 WebRip Hindi 1080p ...
2.74 GB 2019-08-13 07:53:08 1150 542
HD Guardians of The tomb (2018).720p.H264.italian.eng...
1.70 GB 2018-07-23 16:34:19 763 252
x264 Marvels.Guardians.of.the.Galaxy.S03E16.WEB.x264-TB...
179.32 MB 2019-05-12 11:01:13 479 118
HD The.Guardian.Angel.2018.1080p.WEB-DL.DD5.1.H264-CM...
3.51 GB 2018-08-15 15:46:19 468 90




Trackers:
udp://tracker.leechers-paradise.org:6969/announce

Guardians 2009 x264 720p HD Dual Audio English Hindi GOPISAHI
Files
Guardians 2009 x264 720p HD Dual Audio English Hindi GOPISAHI.mkv (644.48 MB)


Comments:
No comments still posted
Powered by TT | Page Generated In 0.868566 secs.
| RSS Feed | Feed Info