Warning! Use a VPN When Downloading Torrents!
Your IP Address is .   Location is
Your Internet Provider is tracking your torrent activity!  Hide your IP ADDRESS with a VPN!
We strongly recommend using Trust.Zone VPN to anonymize your torrenting. It's FREE!
Get VPN Now for FREE!
First Cams

Xvid/x264



Non-English

Site Friends
      ETTV

      Torrentz2

      Free Tutorials

      Free Courses Online

      Nulled Premium

      Aiosearch




Bumblebee (2018)Mp-4 X264 1080p AAC[DSD]


Download torrent:      
Info Hash:  e62876eea88cc1b96dbe3adc987b075534bc26fa
Category:  Movies > HD
Torrent language:  English  
Seeds | Leech:  100 | 14
Complete:   379
Health:   
Total Size:  2.29 GB
Added By:        dascubadude Site FriendMan
Date Added:  11-12-2019 08:41:am | Last Edit:  12-12-2019 09:35:am

IMDB
Bumblebee
Bumblebee Released 21 Dec 2018

Genre Action, Adventure, Sci-Fi

Director Travis Knight

Writer Christina Hodson

Actors Hailee Steinfeld, Jorge Lendeborg Jr., John Cena, Jason Drucker

Plot On the run in the year 1987, Bumblebee finds refuge in a junkyard in a small California beach town. On the cusp of turning 18 and trying to find her place in the world, Charlie Watson discovers Bumblebee, battle-scarred and broken.

Link http://www.imdb.com/title/tt4701182

Last Updated 25-01-2020 21:52:14
6.8

Votes 115,881

Un système d'onglets en javascript
Description Trackers Files 1 Comments 0 Download

Seedboxed!!

trailer
IMDb Info






General
Complete name                            : BUMBLEBEE.Title800.mp4
Format                                   : MPEG-4
Format profile                           : Base Media / Version 2
Codec ID                                 : mp42 (mp42/isom/avc1)
File size                                : 2.29 GiB
Duration                                 : 1 h 53 min
Overall bit rate mode                    : Variable
Overall bit rate                         : 2 883 kb/s
Movie name                               : BUMBLEBEE.Title800
Encoded date                             : UTC 2019-12-10 20:39:38
Tagged date                              : UTC 2019-12-10 21:53:39
Writing application                      : DVDFab 11.0.6.4
Cover                                    : Yes

Video
ID                                       : 1
Format                                   : AVC
Format/Info                              : Advanced Video Codec
Format profile                           : [email protected]
Format settings                          : CABAC / 2 Ref Frames
Format settings, CABAC                   : Yes
Format settings, RefFrames               : 2 frames
Format settings, GOP                     : M=1, N=24
Codec ID                                 : avc1
Codec ID/Info                            : Advanced Video Coding
Duration                                 : 1 h 53 min
Bit rate mode                            : Variable
Bit rate                                 : 2 416 kb/s
Maximum bit rate                         : 3 729 kb/s
Width                                    : 1 920 pixels
Height                                   : 1 080 pixels
Display aspect ratio                     : 16:9
Frame rate mode                          : Constant
Frame rate                               : 23.976 (24000/1001) FPS
Color space                              : YUV
Chroma subsampling                       : 4:2:0
Bit depth                                : 8 bits
Scan type                                : Progressive
Bits/(Pixel*Frame)                       : 0.049
Stream size                              : 1.92 GiB (84%)
Encoded date                             : UTC 2019-12-10 20:39:38
Tagged date                              : UTC 2019-12-10 21:53:39
Color primaries                          : BT.709
Transfer characteristics                 : BT.709
Matrix coefficients                      : BT.709
Menus                                    : 5

Audio
ID                                       : 2
Format                                   : AAC
Format/Info                              : Advanced Audio Codec
Format profile                           : LC
Codec ID                                 : mp4a-40-2
Duration                                 : 1 h 53 min
Bit rate mode                            : Variable
Bit rate                                 : 452 kb/s
Channel(s)                               : 6 channels
Channel positions                        : Front: L C R, Side: L R, LFE
Sampling rate                            : 48.0 kHz
Frame rate                               : 46.875 FPS (1024 SPF)
Compression mode                         : Lossy
Stream size                              : 365 MiB (16%)
Title                                    : English (aac 5.1)
Language                                 : English
Default                                  : Yes
Alternate group                          : 1
Encoded date                             : UTC 2019-12-10 20:39:38
Tagged date                              : UTC 2019-12-10 21:53:39

Text #1
ID                                       : 3
Format                                   : VobSub
Codec ID                                 : mp4s-E0
Codec ID/Info                            : The same subtitle format used on DVDs
Duration                                 : 1 h 49 min
Bit rate mode                            : Variable
Bit rate                                 : 6 959 b/s
Maximum bit rate                         : 4 249 Mb/s
Stream size                              : 5.45 MiB (0%)
Language                                 : English
Default                                  : Yes
Forced                                   : No
Alternate group                          : 2
Encoded date                             : UTC 2019-12-10 20:39:38
Tagged date                              : UTC 2019-12-10 21:51:14

Text #2
ID                                       : 4
Format                                   : VobSub
Codec ID                                 : mp4s-E0
Codec ID/Info                            : The same subtitle format used on DVDs
Duration                                 : 1 h 49 min
Bit rate mode                            : Variable
Bit rate                                 : 9 452 b/s
Maximum bit rate                         : 4 249 Mb/s
Stream size                              : 7.41 MiB (0%)
Language                                 : English
Default                                  : No
Forced                                   : No
Alternate group                          : 2
Encoded date                             : UTC 2019-12-10 20:39:38
Tagged date                              : UTC 2019-12-10 21:51:15



Similar Torrents
Type Name Size Added S L
Divx/Xvid Bumblebee.2018.HC.HDRip.XviD.AC3-EVO
1.37 GB 2019-01-18 19:03:50 35692 16065
Divx/Xvid Bumblebee.2018.HDRip.XviD.AC3-EVO
1.24 GB 2019-03-19 07:36:08 7182 4637
Divx/Xvid Bumblebee (2018) [MD] [HDRip] [XviD-KRT] [Dubbing ...
699.96 MB 2019-01-25 22:26:32 6712 2240
Cam/TS Bumblebee.2018.CAM.X264-MrTaco
1.29 GB 2018-12-16 14:21:50 5601 2243
Cam/TS Bumblebee 2018 NEW HDTS x264 AC3-ETRG
927.48 MB 2018-12-28 15:12:07 3478 2585
Divx/Xvid Bumblebee.2018.HC.HDRip.XViD.AC3-ETRG
1.35 GB 2019-01-19 13:08:23 3357 3218
Cam/TS Bumblebee 2018 NEW 720p HD-TS X264.LLG
1.31 GB 2019-01-02 08:03:03 3311 1768
Cam/TS Bumblebee 2018 NEW 720p HD-TS X264 SugarTits
2.04 GB 2018-12-28 12:20:21 3066 1135
Cam/TS Bumblebee 2018 720p HDCAM ENG SUB-ORCA88
2.44 GB 2018-12-14 10:49:47 2770 3340
Cam/TS Bumblebee 2018 NEW HD-TS XViD AC3-ETRG
1.27 GB 2018-12-29 10:33:51 2718 1596




Trackers:
udp://tracker.openbittorrent.com:80/announce

Bumblebee (2018)Mp-4 X264 1080p AAC[DSD]
Files
BUMBLEBEE.Title800.mp4 (2.29 GB)


Comments:
No comments still posted
Powered by TT | Page Generated In 0.859344 secs.
| RSS Feed | Feed Info