Warning! Use a VPN When Downloading Torrents!
Your IP Address is .   Location is
Your Internet Provider is tracking your torrent activity!  Hide your IP ADDRESS with a VPN!
We strongly recommend using Trust.Zone VPN to anonymize your torrenting. It's FREE!
Get VPN Now for FREE!
First Cams

Xvid/x264



Non-English

Site Friends
      ETTV

      Torrentz2

      Free Tutorials

      Free Courses Online

      Nulled Premium

      Aiosearch




Rocketman (2019)Mp-4 X264 1080p AAC[DSD]


Download torrent:      
Info Hash:  f9e5500181f3bc5100bbb5de5d7b4bd137197c01
Category:  Movies > HD
Torrent language:  English  
Seeds | Leech:  129 | 4
Complete:   414
Health:   
Total Size:  1.91 GB
Added By:        dascubadude Site FriendMan
Date Added:  11-12-2019 07:31:am | Last Edit:  12-12-2019 07:36:am

IMDB
Rocketman
Rocketman Released 31 May 2019

Genre Biography, Drama, Music, Musical

Director Dexter Fletcher

Writer Lee Hall

Actors Taron Egerton, Jamie Bell, Richard Madden, Bryce Dallas Howard

Plot A musical fantasy about the fantastical human story of Elton John's breakthrough years.

Link http://www.imdb.com/title/tt2066051

Last Updated 25-01-2020 21:57:42
7.4

Votes 87,204

Un système d'onglets en javascript
Description Trackers Files 1 Comments 0 Download

Seedboxed!!

Trailer
IMDb Info






General
Complete name                            : Rocketman.theatrical.mp4
Format                                   : MPEG-4
Format profile                           : Base Media / Version 2
Codec ID                                 : mp42 (mp42/isom/avc1)
File size                                : 1.91 GiB
Duration                                 : 2 h 1 min
Overall bit rate mode                    : Variable
Overall bit rate                         : 2 254 kb/s
Movie name                               : Rocketman.theatrical
Performer                                : Dexter Fletcher
Performer/Sorted by                      : Dexter Fletcher
Genre                                    : Music & Drama
Description                              : The story of Elton John's life, from his years as a prodigy at the Royal Academy of Music through his influential and enduring musical partnership with Bernie Taupin.
Encoded date                             : UTC 2019-12-10 21:59:58
Tagged date                              : UTC 2019-12-10 23:14:51
Writing application                      : DVDFab 11.0.6.4
Cover                                    : Yes
Title/Sort                               : Rocketman
LongDescription                          : The story of Elton John's life, from his years as a prodigy at the Royal Academy of Music through his influential and enduring musical partnership with Bernie Taupin.

Video
ID                                       : 1
Format                                   : AVC
Format/Info                              : Advanced Video Codec
Format profile                           : [email protected]
Format settings                          : CABAC / 2 Ref Frames
Format settings, CABAC                   : Yes
Format settings, RefFrames               : 2 frames
Format settings, GOP                     : M=1, N=24
Codec ID                                 : avc1
Codec ID/Info                            : Advanced Video Coding
Duration                                 : 2 h 1 min
Source duration                          : 2 h 1 min
Bit rate mode                            : Variable
Bit rate                                 : 1 784 kb/s
Maximum bit rate                         : 2 776 kb/s
Width                                    : 1 920 pixels
Height                                   : 804 pixels
Display aspect ratio                     : 2.40:1
Frame rate mode                          : Constant
Frame rate                               : 23.976 (24000/1001) FPS
Color space                              : YUV
Chroma subsampling                       : 4:2:0
Bit depth                                : 8 bits
Scan type                                : Progressive
Bits/(Pixel*Frame)                       : 0.048
Stream size                              : 1.51 GiB (79%)
Source stream size                       : 1.51 GiB (79%)
Encoded date                             : UTC 2019-12-10 21:59:58
Tagged date                              : UTC 2019-12-10 23:14:51
Color primaries                          : BT.709
Transfer characteristics                 : BT.709
Matrix coefficients                      : BT.709
Menus                                    : 5

Audio
ID                                       : 2
Format                                   : AAC
Format/Info                              : Advanced Audio Codec
Format profile                           : LC
Codec ID                                 : mp4a-40-2
Duration                                 : 2 h 1 min
Bit rate mode                            : Variable
Bit rate                                 : 448 kb/s
Maximum bit rate                         : 455 kb/s
Channel(s)                               : 6 channels
Channel positions                        : Front: L C R, Side: L R, LFE
Sampling rate                            : 48.0 kHz
Frame rate                               : 46.875 FPS (1024 SPF)
Compression mode                         : Lossy
Stream size                              : 389 MiB (20%)
Title                                    : English (aac 5.1)
Language                                 : English
Default                                  : Yes
Alternate group                          : 1
Encoded date                             : UTC 2019-12-10 21:59:58
Tagged date                              : UTC 2019-12-10 23:14:51

Text #1
ID                                       : 3
Format                                   : VobSub
Codec ID                                 : mp4s-E0
Codec ID/Info                            : The same subtitle format used on DVDs
Duration                                 : 1 h 53 min
Bit rate mode                            : Variable
Bit rate                                 : 8 263 b/s
Maximum bit rate                         : 4 249 Mb/s
Stream size                              : 6.72 MiB (0%)
Language                                 : English
Default                                  : Yes
Forced                                   : No
Alternate group                          : 2
Encoded date                             : UTC 2019-12-10 21:59:58
Tagged date                              : UTC 2019-12-10 23:10:41

Text #2
ID                                       : 4
Format                                   : VobSub
Codec ID                                 : mp4s-E0
Codec ID/Info                            : The same subtitle format used on DVDs
Duration                                 : 2 h 1 min
Bit rate mode                            : Variable
Bit rate                                 : 10.3 kb/s
Maximum bit rate                         : 4 249 Mb/s
Stream size                              : 8.89 MiB (0%)
Language                                 : English
Default                                  : No
Forced                                   : No
Alternate group                          : 2
Encoded date                             : UTC 2019-12-10 21:59:58
Tagged date                              : UTC 2019-12-10 23:14:47


Similar Torrents
Type Name Size Added S L
h.264/x264 Rocketman.2019.HC.HDRip.XviD.AC3-EVO[EtMovies]
1.37 GB 2019-07-04 00:38:16 9983 4919
Cam/TS Rocketman 2019 720p NEW HDCAM-1XBET
2.43 GB 2019-06-03 17:46:25 2333 866
HD Rocketman.2019.1080p.WEB-DL.H264.AC3-EVO[EtHD]
4.15 GB 2019-08-06 07:15:05 1783 1213
Audio Elton John - Rocketman (Music From The Motion Pict...
172.34 MB 2019-05-23 13:32:44 1742 537
Cam/TS Rocketman 2019 NEW HDCAM x264 AC3-ETRG
1,007.97 MB 2019-06-04 14:11:23 1663 1230
HD Rocketman 2019 1080p WEB-DL DD 5.1 x264 [MW]
2.06 GB 2019-08-07 18:06:11 1369 424
Cam/TS Rocketman 2019 HDCAM x264 AC3-ETRG
1.10 GB 2019-06-03 20:57:42 1186 526
HEVC/x265 Rocketman (2019) AC3 5.1 ITA.ENG 1080p H265 sub it...
2.54 GB 2019-08-20 03:38:13 1097 447
HD Rocketman.2019.1080p.HC.HDRip.X264.AC3-EVO[EtHD]
3.45 GB 2019-07-04 04:26:21 942 569
Divx/Xvid Rocketman.2019.HDRip.XviD.AC3-EVO
1.26 GB 2019-08-06 12:20:10 652 588




Trackers:
udp://tracker.openbittorrent.com:80/announce

Rocketman (2019)Mp-4 X264 1080p AAC[DSD]
Files
Rocketman.theatrical.mp4 (1.91 GB)


Comments:
No comments still posted
Powered by TT | Page Generated In 1.158845 secs.
| RSS Feed | Feed Info