Warning! Use a VPN When Downloading Torrents!
Your IP Address is .   Location is
Your Internet Provider is tracking your torrent activity!  Hide your IP ADDRESS with a VPN!
We strongly recommend using Trust.Zone VPN to anonymize your torrenting. Early Black Friday Deal.
Try our promo code "EARLYBF75" to get 3 YEARS VPN with a huge discount - up to 75% OFF.
Try it Now!
First Cams

Xvid/x264



Non-English

Site Friends
      ETTV

      Torrentz2

      Free Tutorials

      Free Courses Online

      Nulled Premium

      Aiosearch




Supergirl S05E03 Blurred Lines 1080p AMZN WEBrip x265 DDP5.1 D0ct0rLew[SEV]


Download torrent:      
Info Hash:  0ad29aca3f6f148eafd3fc92389ab43db09c7355
Category:  TV  > HEVC/x265
Torrent language:  English  
Seeds | Leech:  220 | 113
Complete:   1,620
Health:   
Total Size:  1.52 GB
Added By:        SEV
Date Added:  23-10-2019 03:04:am | Last Edit:  23-10-2019 10:43:pm

IMDB
Supergirl
Supergirl Released 26 Oct 2015

Genre Action, Adventure, Drama, Sci-Fi

Director N/A

Writer Ali Adler, Greg Berlanti, Andrew Kreisberg

Actors Melissa Benoist, Mehcad Brooks, Chyler Leigh, David Harewood

Plot The adventures of Superman's cousin in her own superhero career.

Link https://www.imdb.com/title/tt4016454/?ref_=fn_al_tt_1

Last Updated 20-11-2019 17:53:54
6.3

Votes 100,691

Un système d'onglets en javascript
Description Trackers Files 2 Comments 0 Download




Media Information

Unique ID                                : 159223576643356284963186507577429360620 (0x77C9586CDABF66E34A67241D8F447FEC)
Complete name                            : Supergirl S05E03 Blurred Lines 1080p AMZN WEBrip x265 DDP5.1 D0ct0rLew[SEV].mkv
Format                                   : Matroska
Format version                           : Version 4
File size                                : 1.52 GiB
Duration                                 : 42 min 28 s
Overall bit rate                         : 5 110 kb/s
Encoded date                             : UTC 2019-10-22 23:06:39
Writing application                      : mkvmerge v37.0.0 ('Leave It') 64-bit
Writing library                          : libebml v1.3.9 + libmatroska v1.5.2

Video
ID                                       : 2
Format                                   : HEVC
Format/Info                              : High Efficiency Video Coding
Format profile                           : Main [email protected]@Main
Codec ID                                 : V_MPEGH/ISO/HEVC
Duration                                 : 42 min 28 s
Bit rate                                 : 4 468 kb/s
Width                                    : 1 920 pixels
Height                                   : 1 080 pixels
Display aspect ratio                     : 16:9
Frame rate mode                          : Constant
Frame rate                               : 23.976 (24000/1001) FPS
Color space                              : YUV
Chroma subsampling                       : 4:2:0
Bit depth                                : 10 bits
Bits/(Pixel*Frame)                       : 0.090
Stream size                              : 1.33 GiB (87%)
Writing library                          : x265 3.1+11-de920e0a3183:[Windows][MSVC 1922][64 bit] 10bit
Encoding settings                        : cpuid=1111039 / frame-threads=3 / numa-pools=8 / wpp / no-pmode / no-pme / no-psnr / no-ssim / log-level=2 / input-csp=1 / input-res=1920x1080 / interlace=0 / total-frames=61092 / level-idc=0 / high-tier=1 / uhd-bd=0 / ref=4 / no-allow-non-conformance / no-repeat-headers / annexb / no-aud / no-hrd / info / hash=0 / no-temporal-layers / open-gop / min-keyint=23 / keyint=250 / gop-lookahead=0 / bframes=8 / b-adapt=2 / b-pyramid / bframe-bias=0 / rc-lookahead=90 / lookahead-slices=4 / scenecut=40 / radl=0 / no-splice / no-intra-refresh / ctu=64 / min-cu-size=8 / no-rect / no-amp / max-tu-size=32 / tu-inter-depth=4 / tu-intra-depth=4 / limit-tu=0 / rdoq-level=2 / dynamic-rd=0.00 / no-ssim-rd / signhide / no-tskip / nr-intra=0 / nr-inter=0 / no-constrained-intra / no-strong-intra-smoothing / max-merge=3 / limit-refs=3 / limit-modes / me=3 / subme=7 / merange=92 / temporal-mvp / no-hme / weightp / no-weightb / no-analyze-src-pics / deblock=0:0 / no-sao / no-sao-non-deblock / rd=4 / no-early-skip / rskip / no-fast-intra / no-tskip-fast / no-cu-lossless / no-b-intra / no-splitrd-skip / rdpenalty=0 / psy-rd=1.30 / psy-rdoq=1.00 / no-rd-refine / no-lossless / cbqpoffs=0 / crqpoffs=0 / rc=crf / crf=18.9 / qcomp=0.60 / qpstep=4 / stats-write=0 / stats-read=0 / ipratio=1.40 / pbratio=1.30 / aq-mode=3 / aq-strength=1.00 / cutree / zone-count=0 / no-strict-cbr / qg-size=32 / no-rc-grain / qpmax=69 / qpmin=0 / no-const-vbv / sar=0 / overscan=0 / videoformat=5 / range=0 / colorprim=2 / transfer=2 / colormatrix=2 / chromaloc=0 / display-window=0cll=0,0 / min-luma=0 / max-luma=1023 / log2-max-poc-lsb=8 / vui-timing-info / vui-hrd-info / slices=1 / no-opt-qp-pps / no-opt-ref-list-length-pps / no-multi-pass-opt-rps / scenecut-bias=0.05 / no-opt-cu-delta-qp / no-aq-motion / no-hdr / no-hdr-opt / no-dhdr10-opt / no-idr-recovery-sei / analysis-reuse-level=5 / scale-factor=0 / refine-intra=0 / refine-inter=0 / refine-mv=0 / refine-ctu-distortion=0 / no-limit-sao / ctu-info=0 / no-lowpass-dct / refine-analysis-type=0 / copy-pic=1 / max-ausize-factor=1.0 / no-dynamic-refine / no-single-sei / no-hevc-aq / no-svt / no-field / qp-adaptation-range=1.00
Default                                  : Yes
Forced                                   : No

Audio
ID                                       : 3
Format                                   : E-AC-3
Format/Info                              : Enhanced AC-3
Commercial name                          : Dolby Digital Plus
Codec ID                                 : A_EAC3
Duration                                 : 42 min 28 s
Bit rate mode                            : Constant
Bit rate                                 : 640 kb/s
Channel(s)                               : 6 channels
Channel layout                           : L R C LFE Ls Rs
Sampling rate                            : 48.0 kHz
Frame rate                               : 31.250 FPS (1536 SPF)
Compression mode                         : Lossy
Stream size                              : 194 MiB (13%)
Language                                 : English
Service kind                             : Complete Main
Default                                  : Yes
Forced                                   : No

Text
ID                                       : 1
Format                                   : UTF-8
Codec ID                                 : S_TEXT/UTF8
Codec ID/Info                            : UTF-8 Plain Text
Duration                                 : 42 min 1 s
Bit rate                                 : 87 b/s
Count of elements                        : 765
Stream size                              : 26.9 KiB (0%)
Language                                 : English
Default                                  : Yes
Forced                                   : No

We have no issue with individuals posting or re-uploading our torrents on a platform we aren't on. However, if this is something you'd like to do, please do so in a 'as-is' format. We ask that you do not create a new torrent, include all descriptions you see above including the SEV logo, tags, notes and screenshots.
If you'd like to become a permanent poster on a website we don't post to, feel free to get in contact with a Sublime Encoded Video member.

We are recruiting/training new members for SEV & seedbox providers as well as people to help out with subtitles.
As you already know, we deliver quality, so you know the standard.
If you're interested, feel free to contact any of the team members.


Similar Torrents
Type Name Size Added S L
Video DBM Electra 18 Supergirl
931.42 MB 2019-01-26 10:17:55 225 118
Video [Angel-Desert-Angel The Dreamgirl-Clips4Sale] Ange...
438.63 MB 2019-09-09 23:51:08 74 46
Video [Angel-Desert-Angel The Dreamgirl-Clips4Sale] Ange...
438.63 MB 2019-09-15 20:52:41 58 29
HD Supergirl (1984) Web Rip Hd-X246 Obey[TGx]
2.92 GB 2019-10-04 05:46:42 58 30




Trackers:
udp://open.demonii.si:1337/announce

This Torrent also has backup trackers
URLSeedersLeechersCompleted
http://open.acgnxtracker.com:80/announce000
http://explodie.org:6969/announce000
https://opentracker.xyz:443/announce000
http://tracker.opentrackr.org:1337/announce000
http://tracker3.itzmx.com:6961/announce000
https://1337.abcvg.info:443/announce000

Supergirl S05E03 Blurred Lines 1080p AMZN WEBrip x265 DDP5.1 D0ct0rLew[SEV]
Files
Contact SEV.txt (1.03 kB)
Supergirl S05E03 Blurred Lines 1080p AMZN WEBrip x265 DDP5.1 D0ct0rLew[SEV].mkv (1.52 GB)


Comments:
No comments still posted
Powered by TT | Page Generated In 0.917006 secs.
| RSS Feed | Feed Info