Warning! Use a VPN When Downloading Torrents!
Your IP Address is .   Location is
Your Internet Provider is tracking your torrent activity!  Hide your IP ADDRESS with a VPN!
We strongly recommend using Trust.Zone VPN to anonymize your torrenting. Early Black Friday Deal.
Try our promo code "EARLYBF75" to get 3 YEARS VPN with a huge discount - up to 75% OFF.
Try it Now!
First Cams

Xvid/x264



Non-English

Site Friends
      ETTV

      Torrentz2

      Free Tutorials

      Free Courses Online

      Nulled Premium

      Aiosearch




Jhootha Kahin Ka 2019 Hindi 1080p WEB-DL x264 AAC { TaRa }.mkv


Download torrent:      
Info Hash:  a51f83470470e3b1b5a714540d0af678d285f5ea
Category:  Movies  > HD
Torrent language:  Hindi  
Seeds | Leech:  1,336 | 1,368
Complete:   1,963
Health:   
Total Size:  1.95 GB
Added By:        SkTaRa
Date Added:  22-10-2019 04:40:pm | Last Edit:  23-10-2019 12:25:pm

Un système d'onglets en javascript
Description Trackers Files 5 Comments 0 Download

Jhootha Kahin Ka 2019 Hindi 1080p WEB-DL x264 AAC { TaRa }.mkv


===================================================================
General
Complete name               : Jhootha Kahin Ka 2019 Hindi 1080p WEB-DL x264 AAC { TaRa }.mkv
Format                      : Matroska
Format version              : Version 4
File size                   : 1.95 GiB
Duration                    : 2 h 4 min
Overall bit rate            : 2 246 kb/s
===================================================================
Video
ID                          : 1
Format                      : AVC
Format/Info                 : Advanced Video Codec
Format profile              : [email protected]
Format settings             : CABAC / 4 Ref Frames
Format settings, CABAC      : Yes
Format settings, Reference  : 4 frames
Codec ID                    : V_MPEG4/ISO/AVC
Duration                    : 2 h 4 min
Bit rate                    : 2 200 kb/s
Width                       : 1 920 pixels
Height                      : 1 080 pixels
Display aspect ratio        : 16:9
Frame rate mode             : Constant
Frame rate                  : 25.000 FPS
Color space                 : YUV
Chroma subsampling          : 4:2:0
Bit depth                   : 8 bits
Scan type                   : Progressive
Bits/(Pixel*Frame)          : 0.042
Stream size                 : 1.86 GiB (96%)
Title                       : .....::::: TaRa :::::.....
Language                    : Hindi
Default                     : Yes
Forced                      : No
===================================================================
Audio
ID                          : 2
Format                      : AAC LC
Format/Info                 : Advanced Audio Codec Low Complexity
Codec ID                    : A_AAC-2
Duration                    : 2 h 4 min
Bit rate                    : 98.1 kb/s
Channel(s)                  : 2 channels
Channel layout              : L R
Sampling rate               : 48.0 kHz
Frame rate                  : 46.875 FPS (1024 SPF)
Compression mode            : Lossy
Stream size                 : 87.1 MiB (4%)
Title                       : .....::::: TaRa :::::.....
Language                    : Hindi
Default                     : Yes
Forced                      : No
===================================================================




















Similar Torrents
Type Name Size Added S L
Non-English Jhootha Kahin Ka 2019 WebRip Hindi 720p x264 AAC -...
1,020.54 MB 2019-10-24 07:18:46 2773 1378
HD Jhootha Kahin Ka 2019 x264 720p HD Hindi GOPISAHI
885.32 MB 2019-11-07 03:38:34 397 235
HD Jhootha Kahin Ka (2019) Hindi 720p HDRip x264 AAC ...
981.59 MB 2019-10-22 16:42:13 337 196




Trackers:
udp://tracker.coppersurfer.tk:6969/announce

Jhootha Kahin Ka 2019 Hindi 1080p WEB-DL x264 AAC { TaRa }.mkv
Files
C5F7A6F3-EF39-4507-85DB-6F5D001EC812.jpeg (73.34 kB)
Jhootha Kahin Ka 2019 Hindi 1080p WEB-DL x264 AAC { TaRa }.mkv (1.95 GB)
maxresdefault.jpg (181.17 kB)
Torrent TaRa Digital Team PC Info.nfo (6.53 kB)
Torrent TaRa Digital Team.txt (672.00 B)


Comments:
No comments still posted
Powered by TT | Page Generated In 0.249000 secs.
| RSS Feed | Feed Info